Секс ангелов / Ангелы секса / El sexo de los angeles / The sex of the angels / Angels of sex (Хавьер Вильяверде / Xavier Villaverde) [2012, Испания, Бразилия, романтика, эротика, ЛГБТ, BDRip 720p] VO (Antonio) + Original Spa + Sub Rus

Ответить на тему
 
Автор Сообщение

user ®

Стаж: 7 лет 7 месяцев

Сообщений: 20008

Пост Пост: #1 от 14-Дек-2013 01:25

[Цитировать]

Секс ангелов / Ангелы секса / El sexo de los angeles / The sex of the angels / Angels of sex
Страна: Испания, Бразилия
Жанр: романтика, эротика, ЛГБТ
Год выпуска: 2012
Продолжительность: 01:41:25
Перевод: Одноголосый закадровый Antonio
Cубтитры: русские
Оригинальная аудиодорожка: кастильский/каталанский
Режиссер: Хавьер Вильяверде / Xavier Villaverde
В ролях: Астрид Берже-Фрисби, Альваро Сервантес, Льоренс Гонзалез, Соня Мендез, Джульета Марокко, Марк Гарсия
Описание: Карла и Бруно влюблены друг в друга и наслаждаются беззаботным времяпровождением в компании друзей, пока однажды в их жизни не появляется Раи - обаятельный и загадочный парень, живущий по своим собственным правилам. В этой истории о любви и дружбе привычные границы стираются в ритме брейкданса и фанка, представляя смелый, возбуждающий и глубоко трогательный взгляд на романтические взаимоотношения.

Сэмпл: http://www.sendspace.com/file/ljsuvm
Тип релиза: BDRip 720p
Контейнер: MKV
Видео: MPEG4 Video (H264) 1280x720 25.00fps 5 403 Kbps
Аудио 1: Dolby AC3 48000Hz stereo 224 Kbps [русский]
Аудио 2: DTS 48000Hz 6 Audio Channel 768 Kbps [кастильский/каталанский]
Формат субтитров: softsub (SRT)

MediaInfo

General
Unique ID : 202967455777656005483090148435524918322 (0x98B21C2E529B0CF9A4C8F9DEE7511C32)
Complete name : D:\TORRENTS\El sexo de los angeles.rus.mkv
Format : Matroska
Format version : Version 2
File size : 4.53 GiB
Duration : 1h 41mn
Overall bit rate : 6 400 Kbps
Encoded date : UTC 2013-12-10 11:57:05
Writing application : mkvmerge v4.0.0 ('The Stars were mine') built on Jun 6 2010 16:18:42
Writing library : libebml v1.0.0 + libmatroska v1.0.0
Video
ID : 1
Format : AVC
Format/Info : Advanced Video Codec
Format profile : High@L4.1
Format settings, CABAC : Yes
Format settings, ReFrames : 4 frames
Codec ID : V_MPEG4/ISO/AVC
Duration : 1h 41mn
Bit rate : 5 403 Kbps
Width : 1 280 pixels
Height : 720 pixels
Display aspect ratio : 16:9
Frame rate mode : Constant
Frame rate : 25.000 fps
Color space : YUV
Chroma subsampling : 4:2:0
Bit depth : 8 bits
Scan type : Progressive
Bits/(Pixel*Frame) : 0.235
Stream size : 3.74 GiB (83%)
Writing library : x264 core 116 r2074 2641b9e
Encoding settings : cabac=1 / ref=3 / deblock=1:0:0 / analyse=0x3:0x113 / me=hex / subme=7 / psy=1 / psy_rd=1.00:0.00 / mixed_ref=1 / me_range=16 / chroma_me=1 / trellis=1 / 8x8dct=1 / cqm=0 / deadzone=21,11 / fast_pskip=1 / chroma_qp_offset=-2 / threads=6 / sliced_threads=0 / nr=0 / decimate=1 / interlaced=0 / bluray_compat=0 / constrained_intra=0 / bframes=3 / b_pyramid=2 / b_adapt=1 / b_bias=0 / direct=1 / weightb=1 / open_gop=0 / weightp=2 / keyint=250 / keyint_min=25 / scenecut=40 / intra_refresh=0 / rc_lookahead=40 / rc=2pass / mbtree=1 / bitrate=5403 / ratetol=1.0 / qcomp=0.60 / qpmin=0 / qpmax=69 / qpstep=4 / cplxblur=20.0 / qblur=0.5 / ip_ratio=1.40 / aq=1:1.00
Default : Yes
Forced : No
Audio #1
ID : 2
Format : AC-3
Format/Info : Audio Coding 3
Mode extension : CM (complete main)
Format settings, Endianness : Big
Codec ID : A_AC3
Duration : 1h 41mn
Bit rate mode : Constant
Bit rate : 224 Kbps
Channel(s) : 2 channels
Channel positions : Front: L R
Sampling rate : 48.0 KHz
Bit depth : 16 bits
Compression mode : Lossy
Delay relative to video : 10s 950ms
Stream size : 163 MiB (3%)
Title : Antonio
Language : Russian
Default : Yes
Forced : Yes
Audio #2
ID : 3
Format : DTS
Format/Info : Digital Theater Systems
Mode : 16
Format settings, Endianness : Big
Codec ID : A_DTS
Duration : 1h 41mn
Bit rate mode : Constant
Bit rate : 768 Kbps
Channel(s) : 6 channels
Channel positions : Front: L C R, Side: L R, LFE
Sampling rate : 48.0 KHz
Bit depth : 24 bits
Compression mode : Lossy
Stream size : 557 MiB (12%)
Title : Original
Language : Spanish
Default : No
Forced : No
Text
ID : 4
Format : UTF-8
Codec ID : S_TEXT/UTF8
Codec ID/Info : UTF-8 Plain Text
Title : Antonio
Language : Russian
Default : No
Forced : No

Скриншоты

Скачать

Скачать торрент!

Как скачивать? · Что такое торрент? · Рейтинг и ограничения

Сайт не распространяет и не хранит электронные версии произведений, а лишь предоставляет доступ к создаваемому пользователями каталогу ссылок на торрент-файлы, которые содержат только списки хеш-сумм

[Профиль] [ЛС]
Показать сообщения:    
Ответить на тему

Текущее время: Сегодня 02:03

Часовой пояс: GMT + 4



Вы не можете начинать темы
Вы не можете отвечать на сообщения
Вы не можете редактировать свои сообщения
Вы не можете удалять свои сообщения
Вы не можете голосовать в опросах
Вы не можете прикреплять файлы к сообщениям
Вы не можете скачивать файлы