День Д / D-Day (Никхил Адвани / Nikhil Advani) [2013, Индия, Боевик, триллер, НDRip] MVO (ICG) + Sub Rus + Original

Ответить на тему
 
Автор Сообщение

user ®

Стаж: 12 лет

Сообщений: 15092

Пост Пост: #1 от 13-Дек-2013 22:15

[Цитировать]

День Д / D-Day
-Страна: Индия
Жанр: Боевик, триллер
Год выпуска: 2013
Продолжительность: 02:29:33--Язык: Хинди
Перевод: Любительский (многоголосый закадровый) - ICG
Cубтитры: Pусские (полные, песни) [перевод: Rummata]--Режиссер: Никхил Адвани / Nikhil Advani-В ролях: Риши Капур, Арджун Рампал, Ирфан Кхан, Хума Куреши, Шрути Хасан, Имран Хасни, Аакаш Дахия, Ашвин Дхар, Чандан, Рой Саньял, Нассер--Описание:Команда агентов разведки получает приказ доставить в Индию самого опасного международного преступника, и ей почти удаётся осуществить немыслимый план... но вдруг случается непредвиденное.-- Кинопоиск | Трейлер | Сэмпл--Качество видео: НDRip (исходник неизвестен)
Формат видео: AVI-Видео: XviD, 1381 Кбит/с, 720x304
Аудио #1: AC3, 6 ch, 448 Кбит/с [Rus ]
Аудио #2: 48 kHz, АС3, 2 ch, 224 kbps [Hindi ]
Формат субтитров: softsub (SRT)-Доп. информация:
  • о субтитрах: внешние: #полные, #песни-Релиз по заказу (спасибо!)
    Перевод, редакция: Rummata (спасибо!)--Сэмпл / Sample-- -
    -
    -

    Скриншот с названием:


    -

    Скриншоты:


    -

    MI

    Общее
    Полное имя : Q:\[Релизы]\D.Day.2013.HDRip.Rus.Original.ICG.GeneralFilm\D.Day.2013.HDRip.Rus.Original.ICG.GeneralFilm.avi
    Формат : AVI
    Формат/Информация : Audio Video Interleave
    Профиль формата : OpenDML
    Размер файла : 2,16 Гбайт
    Продолжительность : 2 ч. 29 м.
    Общий поток : 2071 Кбит/сек
    Программа кодирования : VirtualDubModRus 1.5.10.2 (build 2542/release)
    Библиотека кодирования : VirtualDubMod build 2542/release
    Видео
    Идентификатор : 0
    Формат : MPEG-4 Visual
    Профиль формата : Advanced Simple@L5
    Параметр BVOP формата : 1
    Параметр QPel формата : Нет
    Параметр GMC формата : Без точки перехода
    Параметр матрицы формата : Выборочная
    Идентификатор кодека : XVID
    Идентификатор кодека/Подсказка : XviD
    Продолжительность : 2 ч. 29 м.
    Битрейт : 1381 Кбит/сек
    Ширина : 720 пикселей
    Высота : 304 пикселя
    Соотношение сторон : 2,35:1
    Частота кадров : 24,000 кадра/сек
    Цветовое пространство : YUV
    Субдискретизация насыщенности : 4:2:0
    Битовая глубина : 8 бит
    Тип развёртки : Прогрессивная
    Метод сжатия : С потерями
    Бит/(Пиксели*Кадры) : 0.263
    Размер потока : 1,44 Гбайт (67%)
    Библиотека кодирования : XviD 64
    Аудио #1
    Идентификатор : 1
    Формат : AC-3
    Формат/Информация : Audio Coding 3
    Расширение режима : CM (complete main)
    Параметр Endianness формата : Big
    Идентификатор кодека : 2000
    Продолжительность : 2 ч. 29 м.
    Вид битрейта : Постоянный
    Битрейт : 448 Кбит/сек
    Каналы : 6 каналов
    Расположение каналов : Front: L C R, Side: L R, LFE
    Частота : 48,0 КГц
    Битовая глубина : 16 бит
    Метод сжатия : С потерями
    Задержка видео : 13 мс.
    Размер потока : 479 Мбайт (22%)
    Выравнивание : Разделение по промежуткам
    Продолжительность промежутка : 42 мс. (1,00 видеокадр)
    Время предзагрузки промежутка : 500 мс.
    Аудио #2
    Идентификатор : 2
    Формат : AC-3
    Формат/Информация : Audio Coding 3
    Расширение режима : CM (complete main)
    Параметр Endianness формата : Big
    Идентификатор кодека : 2000
    Продолжительность : 2 ч. 29 м.
    Вид битрейта : Постоянный
    Битрейт : 224 Кбит/сек
    Каналы : 2 канала
    Расположение каналов : Front: L R
    Частота : 48,0 КГц
    Битовая глубина : 16 бит
    Метод сжатия : С потерями
    Размер потока : 240 Мбайт (11%)
    Выравнивание : Соединение по промежуткам
    Продолжительность промежутка : 42 мс. (1,00 видеокадр)
    Время предзагрузки промежутка : 512 мс.

    -
    -
Скачать

Скачать торрент! День Д / D-Day (Никхил Адвани / Nikhil Advani) [2013, Индия, Боевик, триллер, НDRip] MVO (ICG) + Sub Rus + Original

Как скачивать? · Что такое торрент? · Рейтинг и ограничения

Сайт не распространяет и не хранит электронные версии произведений, а лишь предоставляет доступ к создаваемому пользователями каталогу ссылок на торрент-файлы, которые содержат только списки хеш-сумм

[Профиль] [ЛС]
Показать сообщения:    
Ответить на тему

Текущее время: Сегодня 06:02

Часовой пояс: GMT + 4



Вы не можете начинать темы
Вы не можете отвечать на сообщения
Вы не можете редактировать свои сообщения
Вы не можете удалять свои сообщения
Вы не можете голосовать в опросах
Вы не можете прикреплять файлы к сообщениям
Вы не можете скачивать файлы