Крутые менты / Крутые. Смертельное шоу (Василий Мищенко, Игорь Шавлак) [1998, Криминал, Детектив, TVRip]

Ответить на тему
 
Автор Сообщение

user ®

Стаж: 7 лет 7 месяцев

Сообщений: 20008

Пост Пост: #1 от 13-Дек-2013 19:05

[Цитировать]

Крутые менты / Крутые. Смертельное шоу- Жанр: Криминал, Детектив
Год выпуска: 1998
Продолжительность: 01:37:32-Режиссер: Василий Мищенко, Игорь Шавлак
В ролях: Василий Мищенко, Игорь Шавлак, Наталия Васильева, Татьяна Егорова, Ярослав Здоров, Владимир Коваль, Татьяна Корецкая, Игорь Ливанов, Александра Назарова, Михаил Негин и др.-Описание: Следователи МУРа ведут дело об убийстве певца Севы Райского. Подозрение падает на менеджера, но и он тоже очень скоро оказывается убитым. Еще одна жертва — телохранитель Райского. Милиционеры заинтересовываются владельцем охранного частного агентства, специализирующегося на шоу-бизнесе, и узнают, что все преступления совершены из-за наркотиков.- -Автор: AngelOfTrue-Качество видео: TVRip
Формат видео: AVI
Видео: XviD / 640x352 / 1.82:1 / 930 kbps / 25 fps / 0.17 bit/pixel
Аудио: MPEG Layer 3 / 48 KHz / 128 kbps / 2/0 (L,R) ch

MediaInfo

Формат : AVI
Формат/Информация : Audio Video Interleave
Размер файла : 746 Мбайт
Продолжительность : 1 ч. 37 м.
Общий поток : 1069 Кбит/сек
Название фильма : Krutye.Menty.1998.RUS.TVRip.XviD.MP3.-AngelOfTrue
Режиссёр : AngelOfTrue
Программа кодирования : VirtualDubMod 1.5.10.3 | www.virtualdub-fr.org || (build 2550/release)
Видео
Идентификатор : 0
Формат : MPEG-4 Visual
Профиль формата : Advanced Simple@L5
Параметр BVOP формата : 2
Параметр QPel формата : Нет
Параметр GMC формата : Без точки перехода
Параметр матрицы формата : Выборочная
Идентификатор кодека : XVID
Идентификатор кодека/Подсказка : XviD
Продолжительность : 1 ч. 37 м.
Битрейт : 931 Кбит/сек
Ширина : 640 пикселей
Высота : 352 пикселя
Соотношение сторон : 16:9
Частота кадров : 25,000 кадров/сек
Цветовое пространство : YUV
Субдискретизация насыщенности : 4:2:0
Битовая глубина : 8 бит
Тип развёртки : Прогрессивная
Метод сжатия : С потерями
Бит/(Пиксели*Кадры) : 0.165
Размер потока : 650 Мбайт (87%)
Библиотека кодирования : XviD 73
Аудио
Идентификатор : 1
Формат : MPEG Audio
Версия формата : Version 1
Профиль формата : Layer 3
Идентификатор кодека : 55
Идентификатор кодека/Подсказка : MP3
Продолжительность : 1 ч. 37 м.
Вид битрейта : Постоянный
Битрейт : 128 Кбит/сек
Каналы : 2 канала
Частота : 48,0 КГц
Метод сжатия : С потерями
Размер потока : 89,3 Мбайт (12%)
Выравнивание : Соединение по промежуткам
Продолжительность промежутка : 40 мс. (1,00 видеокадр)
Время предзагрузки промежутка : 504 мс.
Библиотека кодирования : LAME3.99r
Настройки программы : -m s -V 4 -q 2 -lowpass 17 -b 128

Скриншоты

Скачать

Скачать торрент!

Как скачивать? · Что такое торрент? · Рейтинг и ограничения

Сайт не распространяет и не хранит электронные версии произведений, а лишь предоставляет доступ к создаваемому пользователями каталогу ссылок на торрент-файлы, которые содержат только списки хеш-сумм

[Профиль] [ЛС]
Показать сообщения:    
Ответить на тему

Текущее время: Сегодня 09:47

Часовой пояс: GMT + 4



Вы не можете начинать темы
Вы не можете отвечать на сообщения
Вы не можете редактировать свои сообщения
Вы не можете удалять свои сообщения
Вы не можете голосовать в опросах
Вы не можете прикреплять файлы к сообщениям
Вы не можете скачивать файлы