Короли танцпола / Battle of the Year (Бенсон Ли / Benson Lee) [2013, США, музыка, HDRip] Dub (звук с TS)

Ответить на тему
 
Автор Сообщение

user ®

Стаж: 7 лет 7 месяцев

Сообщений: 20008

Пост Пост: #1 от 13-Дек-2013 12:55

[Цитировать]

Короли танцпола / Battle of the Year
Страна: США
Жанр: музыка
Год выпуска: 2013
Продолжительность: 01:49:40
Перевод: Профессиональный (дублированный) звук с TS
Cубтитры: нет
Оригинальная аудиодорожка: нет
Режиссер: Бенсон Ли / Benson Lee
В ролях: Джош Холлоуэй, Лас Алонсо, Джош Пек, Кейти Лотц, Крис Браун, Иван «Флипз» Велез, Джон «Ду Нок» Крус, Джесси «Каспер» Браун, Дэвид Шрейбман, Саванди Уилсон
Описание: Фильм расскажет про подготовку би-боев, которые в конце года сразятся на финальном соревновании. Главные герои после поражения имеют не так много времени, чтобы подготовиться к встрече с лучшими би-боями мира, которые доминируют на играх уже 10 лет…
Сэмпл: http://multi-up.com/931915
Качество видео: HDRip [рип с BDRip 1080p]
Формат видео: AVI
Видео: Xvid 720x384 23.976fps 1643kbps
Аудио: MPEG Audio Layer 3 48000Hz stereo 128kbps
СМОТРЕТЬ СЕМПЛ

MediaInfo

General
Complete name : F:\КИНО\Ba77le.0f.the.Ye4r.2013.Dt.HDRip.1400MB.avi
Format : AVI
Format/Info : Audio Video Interleave
File size : 1.36 GiB
Duration : 1h 49mn
Overall bit rate : 1 781 Kbps
Writing application : VirtualDubMod 1.5.10.3 | www.virtualdub-fr.org || (build 2550/release)
Writing library : VirtualDubMod build 2550/release
Video
ID : 0
Format : MPEG-4 Visual
Format profile : Advanced Simple@L5
Format settings, BVOP : 2
Format settings, QPel : No
Format settings, GMC : No warppoints
Format settings, Matrix : Custom
Codec ID : XVID
Codec ID/Hint : XviD
Duration : 1h 49mn
Bit rate : 1 643 Kbps
Width : 720 pixels
Height : 384 pixels
Display aspect ratio : 1.875
Frame rate : 23.976 fps
Color space : YUV
Chroma subsampling : 4:2:0
Bit depth : 8 bits
Scan type : Progressive
Compression mode : Lossy
Bits/(Pixel*Frame) : 0.248
Stream size : 1.26 GiB (92%)
Writing library : XviD 1.2.1 (UTC 2008-12-04)
Audio
ID : 1
Format : MPEG Audio
Format version : Version 1
Format profile : Layer 3
Mode : Joint stereo
Mode extension : MS Stereo
Codec ID : 55
Codec ID/Hint : MP3
Duration : 1h 49mn
Bit rate mode : Constant
Bit rate : 128 Kbps
Channel(s) : 2 channels
Sampling rate : 48.0 KHz
Compression mode : Lossy
Stream size : 100 MiB (7%)
Alignment : Aligned on interleaves
Interleave, duration : 42 ms (1.00 video frame)
Interleave, preload duration : 504 ms

Скриншот c названием фильма

Скриншоты

Скачать

Скачать торрент!

Как скачивать? · Что такое торрент? · Рейтинг и ограничения

Сайт не распространяет и не хранит электронные версии произведений, а лишь предоставляет доступ к создаваемому пользователями каталогу ссылок на торрент-файлы, которые содержат только списки хеш-сумм

[Профиль] [ЛС]
Показать сообщения:    
Ответить на тему

Текущее время: Сегодня 18:10

Часовой пояс: GMT + 4



Вы не можете начинать темы
Вы не можете отвечать на сообщения
Вы не можете редактировать свои сообщения
Вы не можете удалять свои сообщения
Вы не можете голосовать в опросах
Вы не можете прикреплять файлы к сообщениям
Вы не можете скачивать файлы