Каньоны / The Canyons (Пол Шредер / Paul Schrader) [2013, США, Триллер, драма, HDRip] Dub (Line)

Ответить на тему
 
Автор Сообщение

user ®

Стаж: 7 лет 7 месяцев

Сообщений: 20008

Пост Пост: #1 от 13-Дек-2013 12:55

[Цитировать]

Каньоны / The Canyons- Страна: США
Жанр: Триллер, драма
Год выпуска: 2013
Продолжительность: 01:39:26-Перевод: Профессиональный (дублированный) (Line)
Cубтитры: Hет-Режиссер: Пол Шредер / Paul Schrader
В ролях: Линдси Лохан, Джеймс Дин, Нолан Фанк, Аманда Брукс, Тениль Хьюстон, Гас Ван Сент, Джарод Эйнсон, Виктор Фишбарг, Джим Бивен-Описание: Тара и Кристиан — золотая молодежь Лос-Анджелеса. Картина исследует жизнь юных героев в Голливуде, их соблазны славой, сексом и наркотиками. Близкая тема для Линдси Лохан, весь мир знает о ее наркотической зависимости в прошлом. Актриса по слухам рискнет появится в картине полностью обнаженной — хотя она ведь уже делала это в «Мачете». Что касается Джеймса Дина, он сыграет красивого манипулятора и заядлого игрока-Сэмпл: http://sendfile.su/909267-Качество видео: HDRip
Формат видео: AVI
Видео: XVID, 720x304, 23.98fps, 1899Kbps
Аудио: AC3, 48000Hz, 2ch, 192Kbps

MediaInfo

Полное имя : D:\3.Торренты\Kanj0ny.2013.D.HDRip.avi
Формат : AVI
Формат/Информация : Audio Video Interleave
Размер файла : 1,46 Гбайт
Продолжительность : 1 ч. 39 м.
Общий поток : 2100 Кбит/сек
Программа кодирования : VirtualDubMod 1.5.10.2 (build 2540/release)
Библиотека кодирования : VirtualDubMod build 2540/release
Видео
Идентификатор : 0
Формат : MPEG-4 Visual
Профиль формата : Advanced Simple@L5
Параметр BVOP формата : 2
Параметр QPel формата : Нет
Параметр GMC формата : Без точки перехода
Параметр матрицы формата : Default (MPEG)
Идентификатор кодека : XVID
Идентификатор кодека/Подсказка : XviD
Продолжительность : 1 ч. 39 м.
Битрейт : 1899 Кбит/сек
Ширина : 720 пикселей
Высота : 304 пикселя
Соотношение сторон : 2,35:1
Частота кадров : 23,976 кадра/сек
Цветовое пространство : YUV
Субдискретизация насыщенности : 4:2:0
Битовая глубина : 8 бит
Тип развёртки : Прогрессивная
Метод сжатия : С потерями
Бит/(Пиксели*Кадры) : 0.362
Размер потока : 1,32 Гбайт (90%)
Библиотека кодирования : XviD 1.2.1 (UTC 2008-12-04)
Аудио
Идентификатор : 1
Формат : AC-3
Формат/Информация : Audio Coding 3
Расширение режима : CM (complete main)
Параметр Endianness формата : Big
Идентификатор кодека : 2000
Продолжительность : 1 ч. 39 м.
Вид битрейта : Постоянный
Битрейт : 192 Кбит/сек
Каналы : 2 канала
Расположение каналов : Front: L R
Частота : 48,0 КГц
Битовая глубина : 16 бит
Метод сжатия : С потерями
Размер потока : 137 Мбайт (9%)
Выравнивание : Разделение по промежуткам
Продолжительность промежутка : 42 мс. (1,00 видеокадр)
Время предзагрузки промежутка : 500 мс.

Скриншот c названием фильма

Скриншоты


Скачать

Скачать торрент!

Как скачивать? · Что такое торрент? · Рейтинг и ограничения

Сайт не распространяет и не хранит электронные версии произведений, а лишь предоставляет доступ к создаваемому пользователями каталогу ссылок на торрент-файлы, которые содержат только списки хеш-сумм

[Профиль] [ЛС]
Показать сообщения:    
Ответить на тему

Текущее время: Сегодня 03:52

Часовой пояс: GMT + 4



Вы не можете начинать темы
Вы не можете отвечать на сообщения
Вы не можете редактировать свои сообщения
Вы не можете удалять свои сообщения
Вы не можете голосовать в опросах
Вы не можете прикреплять файлы к сообщениям
Вы не можете скачивать файлы