Крутые менты / Крутые. Смертельное шоу (Василий Мищенко, Игорь Шавлак) [1998, Криминал, Детектив, TVRip]

Ответить на тему
 
Автор Сообщение

user ®

Стаж: 7 лет 7 месяцев

Сообщений: 20008

Пост Пост: #1 от 13-Дек-2013 09:45

[Цитировать]

Крутые менты / Крутые. Смертельное шоу- Жанр: Криминал, Детектив
Год выпуска: 1998
Продолжительность: 01:37:32-Режиссер: Василий Мищенко, Игорь Шавлак
В ролях: Василий Мищенко, Игорь Шавлак, Наталия Васильева, Татьяна Егорова, Ярослав Здоров, Владимир Коваль, Татьяна Корецкая, Игорь Ливанов, Александра Назарова, Михаил Негин и др.-Описание: Следователи МУРа ведут дело об убийстве певца Севы Райского. Подозрение падает на менеджера, но и он тоже очень скоро оказывается убитым. Еще одна жертва — телохранитель Райского. Милиционеры заинтересовываются владельцем охранного частного агентства, специализирующегося на шоу-бизнесе, и узнают, что все преступления совершены из-за наркотиков.- -Автор: AngelOfTrue--Качество видео: TVRip
Формат видео: AVI
Видео: XviD / 672x368 / 1.83:1 / 1937 kbps / 25 fps / 0.31 bit/pixel
Аудио: AC3 Dolby Digital / 48 KHz / 192 kbps / 2/0 (L,R) ch

MediaInfo

Формат : AVI
Формат/Информация : Audio Video Interleave
Размер файла : 1,46 Гбайт
Продолжительность : 1 ч. 37 м.
Общий поток : 2139 Кбит/сек
Название фильма : Krutye.Menty.1998.RUS.TVRip.XviD.AC3.-AngelOfTrue
Режиссёр : AngelOfTrue
Программа кодирования : VirtualDubMod 1.5.10.3 | www.virtualdub-fr.org || (build 2550/release)
Видео
Идентификатор : 0
Формат : MPEG-4 Visual
Профиль формата : Advanced Simple@L5
Параметр BVOP формата : 2
Параметр QPel формата : Нет
Параметр GMC формата : Без точки перехода
Параметр матрицы формата : Выборочная
Идентификатор кодека : XVID
Идентификатор кодека/Подсказка : XviD
Продолжительность : 1 ч. 37 м.
Битрейт : 1938 Кбит/сек
Ширина : 672 пикселя
Высота : 368 пикселей
Соотношение сторон : 1,85:1
Частота кадров : 25,000 кадров/сек
Цветовое пространство : YUV
Субдискретизация насыщенности : 4:2:0
Битовая глубина : 8 бит
Тип развёртки : Прогрессивная
Метод сжатия : С потерями
Бит/(Пиксели*Кадры) : 0.313
Размер потока : 1,32 Гбайт (91%)
Библиотека кодирования : XviD 73
Аудио
Идентификатор : 1
Формат : AC-3
Формат/Информация : Audio Coding 3
Расширение режима : CM (complete main)
Параметр Endianness формата : Big
Идентификатор кодека : 2000
Продолжительность : 1 ч. 37 м.
Вид битрейта : Постоянный
Битрейт : 192 Кбит/сек
Каналы : 2 канала
Расположение каналов : Front: L R
Частота : 48,0 КГц
Битовая глубина : 16 бит
Метод сжатия : С потерями
Размер потока : 134 Мбайт (9%)
Выравнивание : Разделение по промежуткам
Продолжительность промежутка : 40 мс. (1,00 видеокадр)
Время предзагрузки промежутка : 500 мс.

Скриншоты

Скачать

Скачать торрент!

Как скачивать? · Что такое торрент? · Рейтинг и ограничения

Сайт не распространяет и не хранит электронные версии произведений, а лишь предоставляет доступ к создаваемому пользователями каталогу ссылок на торрент-файлы, которые содержат только списки хеш-сумм

[Профиль] [ЛС]
Показать сообщения:    
Ответить на тему

Текущее время: Сегодня 00:12

Часовой пояс: GMT + 4



Вы не можете начинать темы
Вы не можете отвечать на сообщения
Вы не можете редактировать свои сообщения
Вы не можете удалять свои сообщения
Вы не можете голосовать в опросах
Вы не можете прикреплять файлы к сообщениям
Вы не можете скачивать файлы