Пленницы / Prisoners (Дени Вильнёв / Denis Villeneuve) [2013, США, триллер, драма, криминал, BDRip-AVC] AVO (Ю.Сербин) + Sub Rus, Eng

Ответить на тему
 
Автор Сообщение

user ®

Стаж: 7 лет 7 месяцев

Сообщений: 20008

Пост Пост: #1 от 12-Дек-2013 12:00

[Цитировать]

Пленницы / Prisoners
Страна: США
Жанр: триллер, драма, криминал
Год выпуска: 2013
Продолжительность: 02:33:09
Перевод: Авторский (одноголосый закадровый) Юрий Сербин
Cубтитры: русские, английские (SDH + SDH-Colored)
Оригинальная аудиодорожка: нет
Режиссер: Дени Вильнёв / Denis Villeneuve
В ролях: Хью Джекман, Джейк Джилленхол, Виола Дэвис, Мария Белло, Терренс Ховард, Мелисса Лео, Пол Дано, Дилан Миннетт, Зои Борд, Эрин Герасимович
Описание: Келлер Довер сталкивается с самым большим кошмаром каждого родителя: его шестилетняя дочь пропала вместе с подругой. Время бежит, девочки не возвращаются, и паника достигает своего предела. Единственная зацепка — обветшалый фургончик, который был припаркован на их улице, когда девочки играли во дворе. Детектив Локки, возглавляющий расследование, арестовывает его водителя, Алекса Джонса, но вскоре полиция вынуждена его отпустить из-за нехватки улик. Полиция медлит, а обезумевший от горя отец берет дело в свои руки. Но как далеко готов зайти Келлер в поисках девочек?
Видео: 984x544 (16:9), 23,976 fps, x264 ~979 Кbps avg, 0.075 bit/pixel
Аудио: 48 kHz, AC3 Dolby Digital, 3/2 (L,C,R,l,r) + LFE ch, 384.00 kbps
Качество видео: BDRip-AVC [Prisoners 2013 1080p BluRay AVC DTS-HD MA 5.1-PublicHD]
Формат видео: MKV

Доп. информация

Интересные факты

1. В этом фильме Хью Джекман играет роль отца, чью дочь похищают. Его кандидатура рассматривалась на аналогичную роль в фильме «Милые кости» (2009), но там вместо него взяли Марка Уолберга, который мог сыграть главную роль в этом фильме.
2. Хью Джекман был приписан к проекту еще когда режиссером картины значился Антуан Фукуа. Впоследствии оба выбыли из проекта. После нескольких лет разработок Хью Джекман снова подписался на главную роль.
3. Изначально планировалось, что главные роли исполнят Марк Уолберг и Кристиан Бэйл, а режиссерское кресло займет Брайан Сингер.
4. Леонардо ДиКаприо долгое время значился исполнителем главной роли, однако в конце концов выбыл из проекта.
5. Съёмки проходили в Атланте, Конайерс (Джорджия) и Дерби (Коннектикут).
6. По карточкам детектива Локи можно узнать его полное имя — Дэвид Уэйн Локи.

Перевод выполнен благодаря

Перевод Ю.Сербина выполнен в рамках сервиса от HDCLUB "Озвучивание". Спонсоры: borisol55, Confidence, exact, tambov68, kuryha, RAUL, Кириллка, Dervish, Ace34, xRym, Loki1982, kotauskas, Ex1l, Naumec, а так же пользователи ресурса e180. За что им огромное спасибо!

log@x264

x264 [info]: frame I:1537 Avg QP:16.02 size: 54429
x264 [info]: frame P:50724 Avg QP:20.65 size: 11114
x264 [info]: frame B:168098 Avg QP:21.28 size: 2838
x264 [info]: consecutive B-frames: 4.8% 2.8% 4.6% 24.8% 14.8% 22.2% 7.3% 12.6% 1.6% 0.7% 0.6% 2.4% 0.3% 0.6%
x264 [info]: mb I I16..4: 11.3% 66.9% 21.9%
x264 [info]: mb P I16..4: 0.7% 2.8% 0.5% P16..4: 34.4% 32.0% 8.8% 1.1% 0.2% skip:19.5%
x264 [info]: mb B I16..4: 0.1% 0.3% 0.0% B16..8: 32.5% 10.8% 1.1% direct: 1.6% skip:53.6% L0:42.4% L1:51.0% BI: 6.6%
x264 [info]: 8x8 transform intra:68.1% inter:59.6%
x264 [info]: direct mvs spatial:97.8% temporal:2.2%
x264 [info]: coded y,uvDC,uvAC intra: 76.0% 64.0% 39.4% inter: 7.8% 5.3% 1.9%
x264 [info]: i16 v,h,dc,p: 48% 13% 7% 31%
x264 [info]: i8 v,h,dc,ddl,ddr,vr,hd,vl,hu: 9% 8% 5% 10% 14% 14% 14% 12% 14%
x264 [info]: i4 v,h,dc,ddl,ddr,vr,hd,vl,hu: 12% 9% 6% 10% 14% 13% 13% 10% 13%
x264 [info]: i8c dc,h,v,p: 30% 36% 21% 13%
x264 [info]: Weighted P-Frames: Y:2.8% UV:1.0%
x264 [info]: ref P L0: 52.4% 7.7% 15.1% 6.0% 4.7% 3.7% 2.9% 1.6% 1.5% 1.4% 1.2% 1.3% 0.4% 0.0%
x264 [info]: ref B L0: 71.7% 11.8% 6.3% 2.8% 2.1% 1.7% 1.4% 0.8% 0.7% 0.4% 0.2%
x264 [info]: ref B L1: 90.8% 9.2%
x264 [info]: kb/s:978.70

MediaInfo

Полное имя : C:\Фильмы и пр\Пленницы.mkv
Формат : Matroska
Размер файла : 1,46 Гбайт
Продолжительность : 2 ч. 33 м.
Общий поток : 1365 Кбит/сек
Название фильма : HELLYWOOD - rip by potroks
Дата кодирования : UTC 2013-12-11 15:14:18
Программа кодирования : mkvmerge v5.9.0 ('On The Loose') built on Dec 15 2012 16:39:58
Библиотека кодирования : libebml v1.3.0 + libmatroska v1.4.0
Видео
Идентификатор : 1
Формат : AVC
Формат/Информация : Advanced Video Codec
Профиль формата : High@L4.1
Параметр CABAC формата : Да
Параметр ReFrames формата : 12 кадров
Идентификатор кодека : V_MPEG4/ISO/AVC
Продолжительность : 2 ч. 33 м.
Битрейт : 979 Кбит/сек
Ширина : 984 пикс.
Высота : 554 пикс.
Соотношение сторон : 16:9
Частота кадров : 23,976 кадр/сек
Цветовое пространство : YUV
Подвыборка цветности : 4:2:0
Битовая глубина : 8 бит
Тип развёртки : Прогрессивная
Бит/(Пиксели*Кадры) : 0.075
Размер потока : 1,02 Гбайт (70%)
Заголовок : Prisoners
Библиотека кодирования : x264 core 130 r2273 b3065e6
Настройки программы : cabac=1 / ref=12 / deblock=1:-3:-3 / analyse=0x3:0x133 / me=umh / subme=11 / psy=1 / psy_rd=1.08:0.02 / mixed_ref=1 / me_range=48 / chroma_me=1 / trellis=2 / 8x8dct=1 / cqm=0 / deadzone=21,11 / fast_pskip=0 / chroma_qp_offset=-3 / threads=9 / lookahead_threads=8 / sliced_threads=0 / nr=0 / decimate=0 / interlaced=0 / bluray_compat=0 / constrained_intra=0 / bframes=13 / b_pyramid=2 / b_adapt=2 / b_bias=0 / direct=3 / weightb=1 / open_gop=0 / weightp=2 / keyint=250 / keyint_min=23 / scenecut=40 / intra_refresh=0 / rc_lookahead=60 / rc=2pass / mbtree=0 / bitrate=979 / ratetol=1.0 / qcomp=0.70 / qpmin=0 / qpmax=69 / qpstep=4 / cplxblur=20.0 / qblur=0.5 / vbv_maxrate=20000 / vbv_bufsize=25000 / nal_hrd=none / ip_ratio=1.35 / pb_ratio=1.25 / aq=1:0.80
Язык : English
Аудио
Идентификатор : 2
Формат : AC-3
Формат/Информация : Audio Coding 3
Расширение режима : CM (complete main)
Идентификатор кодека : A_AC3
Продолжительность : 2 ч. 33 м.
Вид битрейта : Постоянный
Битрейт : 384 Кбит/сек
Каналы : 6 каналов
Расположение каналов : Front: L C R, Side: L R, LFE
Частота : 48,0 КГц
Битовая глубина : 16 бит
Метод сжатия : С потерями
Размер потока : 421 Мбайт (28%)
Заголовок : AVO | DD 5.1 @ 384 kbps - Ю.Сербин
Язык : Russian
Текст #1
Идентификатор : 3
Формат : UTF-8
Идентификатор кодека : S_TEXT/UTF8
Идентификатор кодека/Информация : UTF-8 Plain Text
Язык : Russian
Текст #2
Идентификатор : 4
Формат : UTF-8
Идентификатор кодека : S_TEXT/UTF8
Идентификатор кодека/Информация : UTF-8 Plain Text
Заголовок : SDH-Colored
Язык : English
Текст #3
Идентификатор : 5
Формат : UTF-8
Идентификатор кодека : S_TEXT/UTF8
Идентификатор кодека/Информация : UTF-8 Plain Text
Заголовок : SDH
Язык : English
Меню
00:00:00.000 : en:00:00:00.000
00:08:50.780 : en:00:08:50.780
00:19:52.149 : en:00:19:52.149
00:30:18.942 : en:00:30:18.942
00:40:23.838 : en:00:40:23.838
00:49:36.974 : en:00:49:36.974
00:59:27.898 : en:00:59:27.898
01:08:24.726 : en:01:08:24.726
01:17:29.103 : en:01:17:29.103
01:29:17.394 : en:01:29:17.394
01:41:34.797 : en:01:41:34.797
01:51:36.815 : en:01:51:36.815
01:59:39.255 : en:01:59:39.255
02:11:46.690 : en:02:11:46.690
02:19:50.841 : en:02:19:50.841
02:25:54.287 : en:02:25:54.287

Скриншот c названием фильма

Скриншоты

Скачать

Скачать торрент!

Как скачивать? · Что такое торрент? · Рейтинг и ограничения

Сайт не распространяет и не хранит электронные версии произведений, а лишь предоставляет доступ к создаваемому пользователями каталогу ссылок на торрент-файлы, которые содержат только списки хеш-сумм

[Профиль] [ЛС]
Показать сообщения:    
Ответить на тему

Текущее время: Сегодня 07:51

Часовой пояс: GMT + 4



Вы не можете начинать темы
Вы не можете отвечать на сообщения
Вы не можете редактировать свои сообщения
Вы не можете удалять свои сообщения
Вы не можете голосовать в опросах
Вы не можете прикреплять файлы к сообщениям
Вы не можете скачивать файлы