Астрал: Глава 2 / Insidious: Chapter 2 (Джеймс Ван / James Wan) [2013, США, ужасы, триллер, HDRip] Dub + Original (Eng) + Sub (Eng)

Ответить на тему
 
Автор Сообщение

user ®

Стаж: 7 лет 7 месяцев

Сообщений: 20008

Пост Пост: #1 от 11-Дек-2013 14:55

[Цитировать]

Астрал: Глава 2Insidious: Chapter 2«Он вернулся за тобой»- Страна: США
Жанр: ужасы, триллер
Год выпуска: 2013
Продолжительность: 01:45:52-Перевод: Профессиональный (полное дублирование) [Чистый звук]
Оригинальная аудиодорожка: английский
Субтитры: английские
Режиссер: Джеймс Ван / James Wan
В ролях: Патрик Уилсон, Роуз Бирн, Барбара Херши, Стив Култер, Тай Симпкинс, Ли Уоннелл, Энгус Сэмпсон, Лин Шэй, Линдсэй Сейм, Джоселин Донахью, Эндрю Эстор, Хэнк Харрис-Описание: Семья Ламберт стремится раскрыть тайну, из-за которой они оказались в опасной связи с миром духов...-


MPAA: PG-13 - Детям до 13 лет просмотр не желателен-

Доп. Информация

Сценарий: Ли Уоннелл / Leigh Whannell, Джеймс Ван / James Wan
Продюсер: Джейсон Блум / Jason Blum, Орен Пели / Oren Peli, Купер Самуэльсон / Couper Samuelson, Питер Шлессель / Peter Schlessel, Стивен Шнайдер / Steven Schneider
Оператор: Джон Р. Леонетти / John R. Leonetti
Композитор: Джозеф Бишара / Joseph Bishara
Бюджет: $5 000 000
Сборы в США: $83 533 485
Сборы в России: $9 894 530
Сборы в мире: $158 242 977
Мировая премьера: 13 сентября 2013
Релиз на DVD: 21 января 2014,
«Columbia/Sony»

Релиз на Blu-ray: 21 января 2014,
«Columbia/Sony»
-Качество: HDRip [Рип с BDRip 720p]
Контейнер: AVI
Видео: XviD, 720x304 (2.35:1), 1861 kbps, 23,976 fps, 0,355 bpp
Аудио №1: Russian: AC3 / 5.1 / 48 kHz / 448 kbps / 16 bit
Аудио №2: English: AC3 / 5.1 / 48 kHz / 448 kbps / 16 bit-

Знаете ли Вы, что...

  • Продюсеры арендовали на неделю одну постройку в Хайленд-Парке, чтобы преобразить ее в дом Элис Ренье. Большая часть сцен снималась в гостиной и в подвале двухэтажного особняка, который был выстроен в 1908 году. Огромный подвал был разделен на две части. Половина послужила подвалом дома Лоррейн Ламберт, вторая половина была задрапирована под читальню в доме Элис. Также съемки проходили в особняке 1910 года в районе Адамс-Норманди в центре Лос-Анджелеса. Пустующая постройка известна под названием резиденция Беккета.
  • Фильм снимался на протяжении 26 дней на реальных локациях в Лос-Анджелесе. Съемки начались в январе 2013 года в историческом поместье Смитов в районе Хайленд-Парка на северо-востоке Лос-Анджелеса. Этот отлично сохранившийся особняк Викторианской эпохи был представлен авторами фильма как дом Лоррейн Ламберт, в котором на время остановились ее сын Джош вместе со своей семьей. Двухэтажное здание было выстроено в 1887 году. Изначально дом принадлежал судье, который интересовался оккультизмом и даже написал книгу на эту тему.
  • Фильм снимали на камеру Arri Alexa.
  • Когда Спекс и Такер входят в дом Элизы, на стене висит рисунок африканских племен. Точно такой же рисунок можно заметить в фильмах «Паранормальное явление 2» (2010) и «Паранормальное явление 3» (2011).
  • Большая часть фильма была снята в больнице Linda Vista Community Hospital, в которой также снимались сцены в заброшенной больнице. Съемки велись на двух этажах. На одном снимались сцены флешбэков, на другом - эпизоды, происходящие в наше время. Здание оказалось достаточно вместительным, и рабочие смогли преобразить некоторые помещения в комнаты, совершенно не относящиеся к здравоохранению (отделение полиции, столовая в доме Лоррейн, спальня Кали и Место дальностей).
  • Режиссера Джеймса Вана можно заметить на обоях на рабочем столе компьютера вместе со Спексом и Такером.
  • Одним из самых интересных элементов реквизита, разработанным специально для фильма, стали детские ходунки младшей дочери. В эти ходунки по сюжету вселяется нечистая сила, и они оживают. Пришлось снабдить их пультом дистанционного управления, чтобы можно было ими управлять. Ходунки ездили сами по себе, зажигались лампочки, звонили колокольчики, свистели свистки.
  • еще 4 факта
  • Когда Джош кладет лишившуюся сознания Ринэй на диван, она лежит лицом вверх. В следующем кадре ее голова повернута в сторону.

Media Info

General
Complete name : D:\Astral.2.2013.D.HDRip_2100MB.avi
Format : AVI
Format/Info : Audio Video Interleave
File size : 2.05 GiB
Duration : 1h 45mn
Overall bit rate : 2 771 Kbps
Writing application : VirtualDubMod 1.5.10.2 (build 2540/release)
Writing library : VirtualDubMod build 2540/release
Video
ID : 0
Format : MPEG-4 Visual
Format profile : Advanced Simple@L5
Format settings, BVOP : 2
Format settings, QPel : No
Format settings, GMC : No warppoints
Format settings, Matrix : Custom
Codec ID : XVID
Codec ID/Hint : XviD
Duration : 1h 45mn
Bit rate : 1 862 Kbps
Width : 720 pixels
Height : 304 pixels
Display aspect ratio : 2.35:1
Frame rate : 23.976 fps
Color space : YUV
Chroma subsampling : 4:2:0
Bit depth : 8 bits
Scan type : Progressive
Compression mode : Lossy
Bits/(Pixel*Frame) : 0.355
Stream size : 1.38 GiB (67%)
Writing library : XviD 1.2.1 (UTC 2008-12-04)
Audio #1
ID : 1
Format : AC-3
Format/Info : Audio Coding 3
Mode extension : CM (complete main)
Codec ID : 2000
Duration : 1h 45mn
Bit rate mode : Constant
Bit rate : 448 Kbps
Channel(s) : 6 channels
Channel positions : Front: L C R, Side: L R, LFE
Sampling rate : 48.0 KHz
Bit depth : 16 bits
Compression mode : Lossy
Stream size : 339 MiB (16%)
Alignment : Split accross interleaves
Interleave, duration : 42 ms (1.00 video frame)
Interleave, preload duration : 500 ms
Audio #2
ID : 2
Format : AC-3
Format/Info : Audio Coding 3
Mode extension : CM (complete main)
Codec ID : 2000
Duration : 1h 45mn
Bit rate mode : Constant
Bit rate : 448 Kbps
Channel(s) : 6 channels
Channel positions : Front: L C R, Side: L R, LFE
Sampling rate : 48.0 KHz
Bit depth : 16 bits
Compression mode : Lossy
Stream size : 339 MiB (16%)
Alignment : Split accross interleaves
Interleave, duration : 42 ms (1.00 video frame)
Interleave, preload duration : 500 ms

Скриншот с названием фильма

Скриншоты

Скачать

Скачать торрент!

Как скачивать? · Что такое торрент? · Рейтинг и ограничения

Сайт не распространяет и не хранит электронные версии произведений, а лишь предоставляет доступ к создаваемому пользователями каталогу ссылок на торрент-файлы, которые содержат только списки хеш-сумм

[Профиль] [ЛС]
Показать сообщения:    
Ответить на тему

Текущее время: Сегодня 16:35

Часовой пояс: GMT + 4



Вы не можете начинать темы
Вы не можете отвечать на сообщения
Вы не можете редактировать свои сообщения
Вы не можете удалять свои сообщения
Вы не можете голосовать в опросах
Вы не можете прикреплять файлы к сообщениям
Вы не можете скачивать файлы