Вечная сказка (Станислав Либин) [2013, Россия, Мелодрама, HDTV 1080p]

Ответить на тему
 
Автор Сообщение

user ®

Стаж: 7 лет 7 месяцев

Сообщений: 20008

Пост Пост: #1 от 11-Дек-2013 05:25

[Цитировать]

Вечная сказка. Страна: Россия
Жанр: Мелодрама
Год выпуска: 2013
Продолжительность: 01:28:20
Перевод: Не требуется
Cубтитры: нет
Режиссер: Станислав Либин
В ролях: Валерия Ланская, Никита Зверев, Екатерина Волкова, Тимур Ефременков, Владислав Ветров, Алла Захарова, Рамиль Сабитов, Иван Шабалтас, Владислав Дунаев, Олеся Быкова
Описание: Главная героиня Юля подрабатывает певицей в ресторане. У неё фобия — она боится зрителей. Юля — очень честный человек, который даже не подозревает какая судьба ей уготована…..

Сэмпл: http://multi-up.com/931251
Тип релиза: HDTV 1080p
Контейнер: TS
Видео кодек: AVC/H.264
Аудио кодек: MP2
Видео: AVC/H.264, PAL, 1920x1080 (16:9), 8142 Кбит/сек, 25.000 fps, 0.157 bit/pixe
Аудио: русский, MP2, 2ch, 48,0 КГц, 192 Кбит/сек

MediaInfo

Видео
Идентификатор : 4096 (0x1000)
Идентификатор меню : 1 (0x1)
Формат : AVC
Формат/Информация : Advanced Video Codec
Профиль формата : High@L4.1
Параметр CABAC формата : Да
Параметр ReFrames формата : 3 кадра
Идентификатор кодека : 27
Продолжительность : 1 ч. 28 м.
Вид битрейта : Постоянный
Битрейт : 8142 Кбит/сек
Ширина : 1920 пикселей
Высота : 1080 пикселей
Соотношение сторон : 16:9
Частота кадров : 25,000 кадров/сек
Стандарт вещания : PAL
Цветовое пространство : YUV
Субдискретизация насыщенности : 4:2:0
Битовая глубина : 8 бит
Тип развёртки : Прогрессивная
Бит/(Пиксели*Кадры) : 0.157
Размер потока : 4,94 Гбайт (93%)
Основные цвета : BT.709
Характеристики трансфера : BT.709
Коэффициенты матрицы : BT.709
Аудио
Идентификатор : 4097 (0x1001)
Идентификатор меню : 1 (0x1)
Формат : MPEG Audio
Версия формата : Version 1
Профиль формата : Layer 2
Идентификатор кодека : 3
Продолжительность : 1 ч. 28 м.
Вид битрейта : Постоянный
Битрейт : 192 Кбит/сек
Каналы : 2 канала
Частота : 48,0 КГц
Метод сжатия : С потерями
Задержка видео : 17 мс.
Размер потока : 121 Мбайт (2%)

Скриншот с названием фильма

Скриншоты

Время раздачи: с 19:00 до 24:00 (МСК)
Скачать

Скачать торрент!

Как скачивать? · Что такое торрент? · Рейтинг и ограничения

Сайт не распространяет и не хранит электронные версии произведений, а лишь предоставляет доступ к создаваемому пользователями каталогу ссылок на торрент-файлы, которые содержат только списки хеш-сумм

[Профиль] [ЛС]
Показать сообщения:    
Ответить на тему

Текущее время: Сегодня 07:51

Часовой пояс: GMT + 4



Вы не можете начинать темы
Вы не можете отвечать на сообщения
Вы не можете редактировать свои сообщения
Вы не можете удалять свои сообщения
Вы не можете голосовать в опросах
Вы не можете прикреплять файлы к сообщениям
Вы не можете скачивать файлы