Астрал: Глава 2 / Insidious: Chapter 2 (Джеймс Ван / James Wan) [2013, США, ужасы, триллер, BDRip 720p] VO (Doctor Joker / MartinaG) + Sub Eng + Original Eng

Ответить на тему
 
Автор Сообщение

user ®

Стаж: 7 лет 7 месяцев

Сообщений: 20008

Пост Пост: #1 от 11-Дек-2013 05:25

[Цитировать]

Астрал: Глава 2 / Insidious: Chapter 2
Страна: США
Жанр: ужасы, триллер
Год выпуска: 2013
Продолжительность: 01:45:52
Перевод: Одноголосый закадровый перевод MartinaG, закадровый текст читает Doctor_Joker
Cубтитры: английские
Оригинальная аудиодорожка: английский
Режиссер: Джеймс Ван / James Wan
В ролях: Патрик Уилсон, Роуз Бирн, Лин Шэй, Тай Симпкинс, Барбара Херши, Стив Култер, Ли Уоннелл, Энгус Сэмпсон, Эндрю Эстор, Хэнк Харрис
Описание: Семья Ламберт стремится раскрыть тайну, из-за которой они оказались в опасной связи с миром духов…
Доп. информация: Заказ перевода Dikii, перевод MartinaG, закадровый текст читает Doctor_Joker, работа со звуком - Perevodman
Сэмпл: http://multi-up.com/931296
Качество видео: ВDRip720
Формат видео: MKV
Видео: English, 4397 Кбит/сек, 1280*536 (2,40:1), в 23,976 кадра/сек, AVC
Аудио: Russian, 448 Кбит/сек, 48,0 КГц, 16 бит, 6 каналов, AC-3
Аудио 2: English, 1509 Кбит/сек, 48,0 КГц, 24 бит, 6 каналов, DTS
Формат субтитров: softsub (SRT)

MediaInfo

Общее
Уникальный идентификатор : 181908822248110910063591472425029862086 (0x88DA5D62FB383620B7FC95AA68B402C6)
Полное имя : E:\МОНТАЖ\АСТРАЛ\АСТРАЛ 2.2013.BDRip.720p.mkv
Формат : Matroska
Версия формата : Version 4 / Version 2
Размер файла : 4,70 Гбайт
Продолжительность : 1 ч. 45 м.
Общий поток : 6353 Кбит/сек
Дата кодирования : UTC 2013-12-10 16:13:05
Программа кодирования : mkvmerge v6.0.0 ('Coming Up For Air') built on Jan 20 2013 09:52:00
Библиотека кодирования : libebml v1.3.0 + libmatroska v1.4.0
Видео
Идентификатор : 1
Формат : AVC
Формат/Информация : Advanced Video Codec
Профиль формата : High@L4.1
Параметр CABAC формата : Да
Параметр ReFrames формата : 5 кадров
Идентификатор кодека : V_MPEG4/ISO/AVC
Продолжительность : 1 ч. 45 м.
Битрейт : 4397 Кбит/сек
Ширина : 1280 пикселей
Высота : 536 пикселей
Соотношение сторон : 2,40:1
Режим частоты кадров : Постоянный
Частота кадров : 23,976 кадра/сек
Цветовое пространство : YUV
Субдискретизация насыщенности : 4:2:0
Битовая глубина : 8 бит
Тип развёртки : Прогрессивная
Бит/(Пиксели*Кадры) : 0.267
Размер потока : 3,16 Гбайт (67%)
Библиотека кодирования : x264 core 140 r2377 1ca7bb9
Настройки программы : cabac=1 / ref=5 / deblock=1:0:0 / analyse=0x3:0x133 / me=umh / subme=7 / psy=1 / psy_rd=1.00:0.00 / mixed_ref=1 / me_range=16 / chroma_me=1 / trellis=1 / 8x8dct=1 / cqm=0 / deadzone=21,11 / fast_pskip=0 / chroma_qp_offset=-2 / threads=12 / lookahead_threads=2 / sliced_threads=0 / nr=0 / decimate=1 / interlaced=0 / bluray_compat=0 / constrained_intra=0 / bframes=3 / b_pyramid=2 / b_adapt=1 / b_bias=0 / direct=1 / weightb=1 / open_gop=0 / weightp=2 / keyint=250 / keyint_min=23 / scenecut=40 / intra_refresh=0 / rc_lookahead=40 / rc=2pass / mbtree=1 / bitrate=4397 / ratetol=1.0 / qcomp=0.60 / qpmin=0 / qpmax=69 / qpstep=4 / cplxblur=20.0 / qblur=0.5 / ip_ratio=1.40 / aq=1:1.00
Язык : English
Default : Да
Forced : Нет
Аудио #1
Идентификатор : 2
Формат : AC-3
Формат/Информация : Audio Coding 3
Расширение режима : CM (complete main)
Параметр Endianness формата : Big
Идентификатор кодека : A_AC3
Продолжительность : 1 ч. 45 м.
Вид битрейта : Постоянный
Битрейт : 448 Кбит/сек
Каналы : 6 каналов
Расположение каналов : Front: L C R, Side: L R, LFE
Частота : 48,0 КГц
Битовая глубина : 16 бит
Метод сжатия : С потерями
Размер потока : 339 Мбайт (7%)
Заголовок : Русский. Доктор Джокер
Язык : Russian
Default : Да
Forced : Да
Аудио #2
Идентификатор : 3
Формат : DTS
Формат/Информация : Digital Theater Systems
Режим : 16
Параметр Endianness формата : Big
Идентификатор кодека : A_DTS
Продолжительность : 1 ч. 45 м.
Вид битрейта : Постоянный
Битрейт : 1509 Кбит/сек
Каналы : 6 каналов
Расположение каналов : Front: L C R, Side: L R, LFE
Частота : 48,0 КГц
Битовая глубина : 24 бит
Метод сжатия : С потерями
Размер потока : 1,12 Гбайт (24%)
Язык : English
Default : Нет
Forced : Нет
Текст #1
Идентификатор : 4
Формат : UTF-8
Идентификатор кодека : S_TEXT/UTF8
Идентификатор кодека/Информация : UTF-8 Plain Text
Заголовок : English
Язык : English
Default : Нет
Forced : Нет
Текст #2
Идентификатор : 5
Формат : UTF-8
Идентификатор кодека : S_TEXT/UTF8
Идентификатор кодека/Информация : UTF-8 Plain Text
Заголовок : English - SDH
Язык : English
Default : Нет
Forced : Нет
Меню
00:00:00.000 : en:00:00:00.000
00:12:45.890 : en:00:12:45.890
00:22:22.967 : en:00:22:22.967
00:26:03.228 : en:00:26:03.228
00:30:09.224 : en:00:30:09.224
00:37:31.583 : en:00:37:31.583
00:42:46.314 : en:00:42:46.314
00:48:49.468 : en:00:48:49.468
00:56:11.702 : en:00:56:11.702
00:59:41.661 : en:00:59:41.661
01:05:57.579 : en:01:05:57.579
01:14:33.344 : en:01:14:33.344
01:21:37.351 : en:01:21:37.351
01:27:31.413 : en:01:27:31.413
01:33:33.858 : en:01:33:33.858
01:38:59.433 : en:01:38:59.433

Скриншот c названием фильма

Скриншоты

Скачать

Скачать торрент!

Как скачивать? · Что такое торрент? · Рейтинг и ограничения

Сайт не распространяет и не хранит электронные версии произведений, а лишь предоставляет доступ к создаваемому пользователями каталогу ссылок на торрент-файлы, которые содержат только списки хеш-сумм

[Профиль] [ЛС]
Показать сообщения:    
Ответить на тему

Текущее время: Сегодня 12:29

Часовой пояс: GMT + 4



Вы не можете начинать темы
Вы не можете отвечать на сообщения
Вы не можете редактировать свои сообщения
Вы не можете удалять свои сообщения
Вы не можете голосовать в опросах
Вы не можете прикреплять файлы к сообщениям
Вы не можете скачивать файлы