Ёлки (Тимур Бекмамбетов, Александр Войтинский, Александр Андрющенко) [2010 г., Россия, комедия, BDRip 1080p]

Ответить на тему
 
Автор Сообщение

user ®

Стаж: 7 лет 7 месяцев

Сообщений: 20008

Пост Пост: #1 от 10-Дек-2013 22:20

[Цитировать]

Ёлки
Страна: Россия
Жанр: комедия
Год выпуска: 2010
Продолжительность: 01:28:58-Перевод: не требуется
Cубтитры: нет
Оригинальная аудиодорожка: русский-Режиссер: Тимур Бекмамбетов, Александр Войтинский, Дмитрий Киселев, Александр Андрющенко, Ярослав Чеважевский, Игнас Йонинас
В ролях: Иван Ургант, Сергей Светлаков, Вера Брежнева, Алина Булынко, Сергей Гармаш, Артур Смольянинов, Екатерина Вилкова, Мария Порошина, Дато Бахтадзе, Александр Головин-Описание: События самой новогодней комедии ЁЛКИ происходят в 11 городах: Калининграде, Казани, Перми, Уфе, Бавлах, Екатеринбурге, Красноярске, Якутске, Новосибирске, Санкт-Петербурге и Москве. Герои фильма - таксист и поп-дива, бизнесмен и актер, сноубордист и лыжник, студент и пенсионерка, пожарный и директриса, вор и милиционер, гастарбайтер и президент России. Все они оказываются в самый канун Нового года в очень непростой ситуации, выйти из которой им поможет только чудо... или Теория шести рукопожатий, согласно которой каждый человек на земле знает другого через шесть знакомых.
-Сэмпл-Релиз: madoff
Качество: BDRip 1080p
Формат: MKV
Видео: AVC, 1920x816, 23,976 fps, 11.4 Mbps
Аудио: Russian: 48 kHz, DTS, 5,1 ch, ~1510.00 kbps

MediaInfo

Формат : Matroska
Версия формата : Version 2
Размер файла : 8,18 Гбайт
Продолжительность : 1 ч. 28 м.
Общий поток : 13,2 Мбит/сек
Дата кодирования : UTC 2013-12-10 01:27:50
Программа кодирования : mkvmerge v5.8.0 ('No Sleep / Pillow') built on Sep 2 2012 15:37:04
Библиотека кодирования : libebml v1.2.3 + libmatroska v1.3.0
Видео
Идентификатор : 1
Формат : AVC
Формат/Информация : Advanced Video Codec
Профиль формата : High@L4.1
Параметр CABAC формата : Да
Параметр ReFrames формата : 5 кадров
Идентификатор кодека : V_MPEG4/ISO/AVC
Продолжительность : 1 ч. 28 м.
Битрейт : 11,4 Мбит/сек
Ширина : 1920 пикселей
Высота : 816 пикселей
Соотношение сторон : 2,35:1
Режим частоты кадров : Постоянный
Частота кадров : 23,976 кадра/сек
Цветовое пространство : YUV
Субдискретизация насыщенности : 4:2:0
Битовая глубина : 8 бит
Тип развёртки : Прогрессивная
Бит/(Пиксели*Кадры) : 0.303
Размер потока : 7,08 Гбайт (87%)
Библиотека кодирования : x264 core 130 r2273 b3065e6
Настройки программы : cabac=1 / ref=5 / deblock=1:-3:-3 / analyse=0x3:0x113 / me=umh / subme=11 / psy=1 / psy_rd=1.00:0.00 / mixed_ref=1 / me_range=48 / chroma_me=1 / trellis=2 / 8x8dct=1 / cqm=0 / deadzone=21,11 / fast_pskip=0 / chroma_qp_offset=-2 / threads=12 / lookahead_threads=2 / sliced_threads=0 / nr=0 / decimate=1 / interlaced=0 / bluray_compat=0 / constrained_intra=0 / bframes=9 / b_pyramid=2 / b_adapt=2 / b_bias=0 / direct=3 / weightb=1 / open_gop=0 / weightp=2 / keyint=250 / keyint_min=23 / scenecut=40 / intra_refresh=0 / rc_lookahead=40 / rc=crf / mbtree=0 / crf=16.4 / qcomp=0.60 / qpmin=0 / qpmax=69 / qpstep=4 / vbv_maxrate=62500 / vbv_bufsize=78125 / crf_max=0.0 / nal_hrd=none / ip_ratio=1.40 / pb_ratio=1.30 / aq=1:0.80
Язык : Russian
Default : Да
Forced : Нет
Аудио
Идентификатор : 2
Формат : DTS
Формат/Информация : Digital Theater Systems
Режим : 16
Параметр Endianness формата : Big
Режим смешивания : Header stripping
Идентификатор кодека : A_DTS
Продолжительность : 1 ч. 28 м.
Вид битрейта : Постоянный
Битрейт : 1509 Кбит/сек
Каналы : 6 каналов
Расположение каналов : Front: L C R, Side: L R, LFE
Частота : 48,0 КГц
Битовая глубина : 16 бит
Метод сжатия : С потерями
Размер потока : 960 Мбайт (11%)
Язык : Russian
Default : Да
Forced : Нет
Меню
00:00:00.000 : :00:00:00.000
00:04:07.456 : :00:04:07.456
00:10:16.115 : :00:10:16.115
00:16:49.091 : :00:16:49.091
00:23:20.566 : :00:23:20.566
00:28:40.510 : :00:28:40.510
00:35:37.969 : :00:35:37.969
00:41:07.423 : :00:41:07.423
00:49:10.948 : :00:49:10.948
00:54:17.004 : :00:54:17.004
00:59:15.719 : :00:59:15.719
01:04:01.504 : :01:04:01.504
01:09:59.320 : :01:09:59.320
01:14:18.079 : :01:14:18.079
01:16:51.440 : :01:16:51.440
01:22:04.545 : :01:22:04.545
Скачать

Скачать торрент!

Как скачивать? · Что такое торрент? · Рейтинг и ограничения

Сайт не распространяет и не хранит электронные версии произведений, а лишь предоставляет доступ к создаваемому пользователями каталогу ссылок на торрент-файлы, которые содержат только списки хеш-сумм

[Профиль] [ЛС]
Показать сообщения:    
Ответить на тему

Текущее время: Сегодня 13:38

Часовой пояс: GMT + 4



Вы не можете начинать темы
Вы не можете отвечать на сообщения
Вы не можете редактировать свои сообщения
Вы не можете удалять свои сообщения
Вы не можете голосовать в опросах
Вы не можете прикреплять файлы к сообщениям
Вы не можете скачивать файлы