Война Харта / Hart\'s War (Грегори Хоблит / Gregory Hoblit) [2002, США, драма, военный, BDRip 720p] 2х MVO + DVO + AVO + VO + Ukr + Original eng + Sub rus, eng, ukr + Comm

Ответить на тему
 
Автор Сообщение

user ®

Стаж: 7 лет 7 месяцев

Сообщений: 20008

Пост Пост: #1 от 10-Дек-2013 22:20

[Цитировать]

Война Харта / Hart's War
Страна: США
Жанр: драма, военный
Год выпуска: 2002
Продолжительность: 02:04:49
Перевод#1: Профессиональный (многоголосый закадровый) | R5
Перевод#2: Профессиональный (двухголосый закадровый) | Лазер Видео (VHS)
Перевод#3: Профессиональный (многоголосый закадровый)
Перевод#4: Одноголосый закадровый
Перевод#5: Авторский (одноголосый закадровый), Е. Рудой
Cубтитры: русские, украинские, английские
Оригинальная аудиодорожка: английский
Режиссер: Грегори Хоблит / Gregory Hoblit
В ролях: Брюс Уиллис, Колин Фаррелл, Терренс Хоуард, Коул Хаузер, Марсель Юреш, Лайнэс Роуч, В. Реон Шэннон, Мори Стерлинг, Сэм Джэгер, Скотт Майкл Кемпбелл, Рори Кокрейн, Себастьян Тиллинджер
Описание: Лейтенант Томми Харт — студент-юрист второго года обучения. Во время Второй мировой войны он становится помощником офицера, попадает в плен и оказывается в немецком лагере для военнопленных. Там он знакомится с другим военнопленным — полковником Уильямом МакНамара...

Тип релиза: BDRip 720p (от DON) | sample
Контейнер: MKV
Видео кодек: x264
Видео: AVC 1280x542 (2.35:1), 23.976 fps, ~5500 Kbps, 0.33 bit/pixel
Аудио #1: Russian AC3 6ch 48kHz 448Kbps | MVO R5
Аудио #2: Russian AC3 2ch 48kHz 192Kbps | DVO Лазер Видео
Аудио #3: Russian AC3 6ch 48kHz 448Kbps | MVO
Аудио #4: Russian AC3 6ch 48kHz 384Kbps | VO
Аудио #5: Russian AC3 6ch 48kHz 640Kbps | AVO Рудой
Аудио #6: Ukrainian AC3 2ch 48kHz 192Kbps | MVO K1
Аудио #7: English AC3 6ch 48kHz 640Kbps | Original
Аудио #8: English AAC-LC 6ch 48kHz ~75Kbps | Commentary#1
Аудио #9: English AAC-LC 6ch 48kHz ~80Kbps | Commentary#2
Формат субтитров: softsub (SRT)
Главы: есть, подписаны

MediaInfo | x264

x264

x264 [info]: frame I:1639 Avg QP:15.03 size: 84348
x264 [info]: frame P:34408 Avg QP:16.46 size: 47849
x264 [info]: frame B:143533 Avg QP:18.09 size: 23428
x264 [info]: consecutive B-frames: 1.6% 1.7% 4.4% 8.2% 9.1% 68.3% 5.1% 1.6%
encoded 179580 frames, 3.27 fps, 5497.75 kb/s
General
Complete name : E:\...\Hart's War 2002\Hart's.War.2002.720p.BluRay.x264.Rus.Eng-DON.mkv
Format : Matroska
Format version : Version 2
File size : 7.50 GiB
Duration : 2h 4mn
Overall bit rate : 8 603 Kbps
Movie name : Hart's.War.2002.720p.BluRay.x264.Rus.Eng-DON
Encoded date : UTC 2013-12-10 09:58:48
Writing application : mkvmerge v6.5.0 ('Isn't she lovely') built on Oct 20 2013 12:50:05
Writing library : libebml v1.3.0 + libmatroska v1.4.1
Video
ID : 1
Format : AVC
Format/Info : Advanced Video Codec
Format profile : High@L4.1
Format settings, CABAC : Yes
Format settings, ReFrames : 11 frames
Codec ID : V_MPEG4/ISO/AVC
Duration : 2h 4mn
Nominal bit rate : 5 500 Kbps
Width : 1 280 pixels
Height : 542 pixels
Display aspect ratio : 2.35:1
Frame rate mode : Constant
Frame rate : 23.976 fps
Color space : YUV
Chroma subsampling : 4:2:0
Bit depth : 8 bits
Scan type : Progressive
Bits/(Pixel*Frame) : 0.331
Title : DON
Writing library : x264 core 119 r2106 07efeb4
Encoding settings : cabac=1 / ref=11 / deblock=1:-3:-3 / analyse=0x3:0x133 / me=tesa / subme=10 / psy=1 / psy_rd=1.05:0.00 / mixed_ref=1 / me_range=32 / chroma_me=1 / trellis=2 / 8x8dct=1 / cqm=0 / deadzone=21,11 / fast_pskip=0 / chroma_qp_offset=-2 / threads=12 / sliced_threads=0 / nr=0 / decimate=0 / interlaced=0 / bluray_compat=0 / constrained_intra=0 / bframes=7 / b_pyramid=2 / b_adapt=2 / b_bias=0 / direct=3 / weightb=1 / open_gop=0 / weightp=2 / keyint=250 / keyint_min=23 / scenecut=40 / intra_refresh=0 / rc_lookahead=60 / rc=2pass / mbtree=1 / bitrate=5500 / ratetol=1.0 / qcomp=0.75 / qpmin=0 / qpmax=69 / qpstep=4 / cplxblur=20.0 / qblur=0.5 / vbv_maxrate=50000 / vbv_bufsize=62500 / nal_hrd=none / ip_ratio=1.40 / aq=1:0.70
Language : English
Default : Yes
Forced : No
Audio #1
ID : 2
Format : AC-3
Format/Info : Audio Coding 3
Mode extension : CM (complete main)
Format settings, Endianness : Big
Codec ID : A_AC3
Duration : 2h 4mn
Bit rate mode : Constant
Bit rate : 448 Kbps
Channel(s) : 6 channels
Channel positions : Front: L C R, Side: L R, LFE
Sampling rate : 48.0 KHz
Bit depth : 16 bits
Compression mode : Lossy
Stream size : 400 MiB (5%)
Title : MVO R5
Language : Russian
Default : Yes
Forced : No
Audio #2
ID : 3
Format : AC-3
Format/Info : Audio Coding 3
Mode extension : CM (complete main)
Format settings, Endianness : Big
Codec ID : A_AC3
Duration : 2h 4mn
Bit rate mode : Constant
Bit rate : 192 Kbps
Channel(s) : 2 channels
Channel positions : Front: L R
Sampling rate : 48.0 KHz
Bit depth : 16 bits
Compression mode : Lossy
Stream size : 171 MiB (2%)
Title : DVO Lazer Video
Language : Russian
Default : No
Forced : No
Audio #3
ID : 4
Format : AC-3
Format/Info : Audio Coding 3
Mode extension : CM (complete main)
Format settings, Endianness : Big
Codec ID : A_AC3
Duration : 2h 4mn
Bit rate mode : Constant
Bit rate : 448 Kbps
Channel(s) : 6 channels
Channel positions : Front: L C R, Side: L R, LFE
Sampling rate : 48.0 KHz
Bit depth : 16 bits
Compression mode : Lossy
Stream size : 400 MiB (5%)
Title : MVO
Language : Russian
Default : No
Forced : No
Audio #4
ID : 5
Format : AC-3
Format/Info : Audio Coding 3
Mode extension : CM (complete main)
Format settings, Endianness : Big
Codec ID : A_AC3
Duration : 2h 4mn
Bit rate mode : Constant
Bit rate : 384 Kbps
Channel(s) : 6 channels
Channel positions : Front: L C R, Side: L R, LFE
Sampling rate : 48.0 KHz
Bit depth : 16 bits
Compression mode : Lossy
Stream size : 343 MiB (4%)
Title : VO
Language : Russian
Default : No
Forced : No
Audio #5
ID : 6
Format : AC-3
Format/Info : Audio Coding 3
Mode extension : CM (complete main)
Format settings, Endianness : Big
Codec ID : A_AC3
Duration : 2h 4mn
Bit rate mode : Constant
Bit rate : 640 Kbps
Channel(s) : 6 channels
Channel positions : Front: L C R, Side: L R, LFE
Sampling rate : 48.0 KHz
Bit depth : 16 bits
Compression mode : Lossy
Stream size : 571 MiB (7%)
Title : AVO Rudoi
Language : Russian
Default : No
Forced : No
Audio #6
ID : 7
Format : AC-3
Format/Info : Audio Coding 3
Mode extension : CM (complete main)
Format settings, Endianness : Big
Codec ID : A_AC3
Duration : 2h 4mn
Bit rate mode : Constant
Bit rate : 192 Kbps
Channel(s) : 2 channels
Channel positions : Front: L R
Sampling rate : 48.0 KHz
Bit depth : 16 bits
Compression mode : Lossy
Stream size : 171 MiB (2%)
Title : MVO К1
Language : Ukrainian
Default : No
Forced : No
Audio #7
ID : 8
Format : AC-3
Format/Info : Audio Coding 3
Mode extension : CM (complete main)
Format settings, Endianness : Big
Codec ID : A_AC3
Duration : 2h 4mn
Bit rate mode : Constant
Bit rate : 640 Kbps
Channel(s) : 6 channels
Channel positions : Front: L C R, Side: L R, LFE
Sampling rate : 48.0 KHz
Bit depth : 16 bits
Compression mode : Lossy
Stream size : 571 MiB (7%)
Title : Original
Language : English
Default : No
Forced : No
Audio #8
ID : 9
Format : AAC
Format/Info : Advanced Audio Codec
Format profile : LC
Codec ID : A_AAC
Duration : 2h 4mn
Channel(s) : 2 channels
Channel positions : Front: L R
Sampling rate : 48.0 KHz
Compression mode : Lossy
Delay relative to video : 9ms
Title : Commentary #1
Language : English
Default : No
Forced : No
Audio #9
ID : 10
Format : AAC
Format/Info : Advanced Audio Codec
Format profile : LC
Codec ID : A_AAC
Duration : 2h 4mn
Channel(s) : 2 channels
Channel positions : Front: L R
Sampling rate : 48.0 KHz
Compression mode : Lossy
Delay relative to video : 9ms
Title : Commentary #2
Language : English
Default : No
Forced : No
Text #1
ID : 11
Format : UTF-8
Codec ID : S_TEXT/UTF8
Codec ID/Info : UTF-8 Plain Text
Language : Russian
Default : No
Forced : No
Text #2
ID : 12
Format : UTF-8
Codec ID : S_TEXT/UTF8
Codec ID/Info : UTF-8 Plain Text
Language : Ukrainian
Default : No
Forced : No
Text #3
ID : 13
Format : UTF-8
Codec ID : S_TEXT/UTF8
Codec ID/Info : UTF-8 Plain Text
Language : English
Default : No
Forced : No
Menu
00:00:00.000 : en:Main Title/Priviledge
00:03:15.529 : en:Ambush
00:05:53.185 : en:Interrogation
00:08:13.117 : en:Transport
00:10:37.804 : en:POW
00:15:07.532 : en:Behind the Gates
00:19:37.093 : en:Questioning
00:25:44.877 : en:New Barracks
00:28:38.675 : en:More Prisoners
00:32:28.280 : en:Crowded House
00:35:14.487 : en:Bread WInners
00:40:18.750 : en:Spiked
00:44:48.978 : en:Lost Transmission
00:47:39.857 : en:Crash Landing
00:50:23.229 : en:Liar
00:53:04.556 : en:Crime Scene
00:57:49.675 : en:Railroaded
01:00:14.319 : en:Acting Attorney
01:05:07.529 : en:Rigged Trial
01:08:45.037 : en:Surprise Assistance
01:13:43.711 : en:Called Out
01:17:10.709 : en:Colonel to Colonel
01:21:45.901 : en:Smudges
01:25:09.521 : en:Lt. Scott Speaks Up
01:28:16.332 : en:Colonel on the Stand
01:34:11.187 : en:Discovery
01:38:26.067 : en:Case Solved
01:41:07.979 : en:Honor
01:45:51.762 : en:Closing Arguments
01:52:06.386 : en:Sacrifices
01:59:13.938 : en:Deep Understanding
02:00:02.028 : en:End Credits

Скриншоты и сравнения


Скачать

Скачать торрент!

Как скачивать? · Что такое торрент? · Рейтинг и ограничения

Сайт не распространяет и не хранит электронные версии произведений, а лишь предоставляет доступ к создаваемому пользователями каталогу ссылок на торрент-файлы, которые содержат только списки хеш-сумм

[Профиль] [ЛС]
Показать сообщения:    
Ответить на тему

Текущее время: Сегодня 13:38

Часовой пояс: GMT + 4



Вы не можете начинать темы
Вы не можете отвечать на сообщения
Вы не можете редактировать свои сообщения
Вы не можете удалять свои сообщения
Вы не можете голосовать в опросах
Вы не можете прикреплять файлы к сообщениям
Вы не можете скачивать файлы