Лучшее предложение / La migliore offerta / The Best Offer (Джузеппе Торнаторе / Giuseppe Tornatore) [2013, Италия, криминал, драма, романтика, BDRip 1080p] [ITA Transfer] Dub + AVO (Сербин) + Sub (Rus, Eng, Ita) + Original (Eng)

Ответить на тему
 
Автор Сообщение

user ®

Стаж: 7 лет 7 месяцев

Сообщений: 20008

Пост Пост: #1 от 10-Дек-2013 22:20

[Цитировать]

Лучшее предложение / La migliore offerta / The Best Offer
Страна: Италия
Студия: Paco Cinematografica, Warner Bros.
Жанр: криминал, драма, романтика
Год выпуска: 2013
Продолжительность: 02:10:58
Перевод 1: Профессиональный (дублированный) Пифагор
Перевод 2: Авторский (одноголосый закадровый) Юрий Сербин
Cубтитры: русские (BD), английские, итальянские (SDH)
Оригинальная аудиодорожка: английский
Режиссер: Джузеппе Торнаторе / Giuseppe Tornatore
В ролях: Джеффри Раш, Джим Стёрджесс, Сильвия Хукс, Дональд Сазерленд, Филип Джексон, Дермот Краули, Кируна Стамелл, Лия Кебеде, Джон Бенфилд
Описание: Вергилий Олдман — управляющий директор ведущего аукционного дома. Время от времени со своим партнёром Билли на глазах у всего мира он проворачивает хитроумные аферы, ловко манипулируя и вводя в заблуждение как продавцов, так и покупателей. В секретном зале своей виллы он собрал сотни бесценных картин из разных эпох.
Однажды таинственная женщина, скрывающая свою личность, просит его продать антиквариат её семьи. Среди многочисленных произведений искусства раз за разом Олдман обнаруживает частицы давно утерянного механизма. В своё время поговаривали, что для того чтобы его оживить, создатели прибегали к помощи высших сил… Складывая, как пазл, найденные детали, вместе со своим гениальным другом Робертом они пытаются разгадать этот секрет. Но Олдман заинтересован не только предметами старины…

IMDB: 7.8/10
Сэмпл: Скачать
Тип релиза: BDRip 1080p (HDMaNiAcS)
Контейнер: MKV
Видео: MPEG-4 AVC / 1920x804 / 8950 kbps / 24 fps / 16:9 / High Profile 4.1
Аудио 1: Русский, DTS / 5.1 / 48 kHz / 1536 kbps / 24 bit (Дубляж)
Аудио 2: Русский, DTS / 5.1 / 48 kHz / 1536 kbps / 16 bit (Сербин)
Аудио 3: Английский, DTS / 5.1 / 48 kHz / 1536 kbps / 16 bit / DN -3dB (Оригинал)
Формат субтитров: подключаемые (SRT)
Навигация по главам: есть

x264 info

x264 [info]: frame I:1893  Avg QP:14.11  size:237480
x264 [info]: frame P:39467 Avg QP:15.39  size: 94912
x264 [info]: frame B:147232 Avg QP:17.51  size: 31210
x264 [info]: consecutive B-frames:  2.0%  2.3% 10.3% 12.2% 18.0% 40.5%  8.7%  3.0%  3.0%

MediaInfo

General
Unique ID : 201218731327562128611699452642649545526 (0x97615168AE03F0EE881C5BA15C019B36)
Complete name : D:\La.migliore.offerta.2013.1080p.BluRay.2xRus.Eng.x264-HDMaNiAcS.mkv
Format : Matroska
Format version : Version 2
File size : 12.3 GiB
Duration : 2h 10mn
Overall bit rate : 13.5 Mbps
Encoded date : UTC 2013-12-10 13:50:33
Writing application : mkvmerge v5.8.0 ('No Sleep / Pillow') built on Sep 2 2012 15:37:04
Writing library : libebml v1.2.3 + libmatroska v1.3.0
Video
ID : 1
Format : AVC
Format/Info : Advanced Video Codec
Format profile : High@L4.1
Format settings, CABAC : Yes
Format settings, ReFrames : 5 frames
Codec ID : V_MPEG4/ISO/AVC
Duration : 2h 10mn
Bit rate : 8 950 Kbps
Width : 1 920 pixels
Height : 804 pixels
Display aspect ratio : 2.40:1
Frame rate mode : Constant
Frame rate : 24.000 fps
Color space : YUV
Chroma subsampling : 4:2:0
Bit depth : 8 bits
Scan type : Progressive
Bits/(Pixel*Frame) : 0.242
Stream size : 7.94 GiB (64%)
Title : La migliore offerta (2013)
Writing library : x264 core 138 r2358 9e941d1
Encoding settings : cabac=1 / ref=5 / deblock=1:-3:-3 / analyse=0x3:0x133 / me=tesa / subme=11 / psy=1 / psy_rd=1.05:0.00 / mixed_ref=1 / me_range=32 / chroma_me=1 / trellis=2 / 8x8dct=1 / cqm=0 / deadzone=21,11 / fast_pskip=1 / chroma_qp_offset=-2 / threads=12 / lookahead_threads=2 / sliced_threads=0 / nr=0 / decimate=1 / interlaced=0 / bluray_compat=0 / constrained_intra=0 / bframes=8 / b_pyramid=2 / b_adapt=2 / b_bias=0 / direct=3 / weightb=1 / open_gop=0 / weightp=2 / keyint=240 / keyint_min=24 / scenecut=40 / intra_refresh=0 / rc=2pass / mbtree=0 / bitrate=8950 / ratetol=1.0 / qcomp=0.60 / qpmin=10 / qpmax=69 / qpstep=4 / cplxblur=20.0 / qblur=0.5 / ip_ratio=1.40 / pb_ratio=1.30 / aq=2:0.75
Language : Italian
Default : Yes
Forced : No
Audio #1
ID : 2
Format : DTS
Format/Info : Digital Theater Systems
Codec ID : A_DTS
Duration : 2h 10mn
Bit rate mode : Constant
Bit rate : 1 510 Kbps
Channel(s) : 6 channels
Channel positions : Front: L C R, Side: L R, LFE
Sampling rate : 48.0 KHz
Bit depth : 24 bits
Compression mode : Lossy
Stream size : 1.38 GiB (11%)
Title : Dub, BD Rus
Language : Russian
Default : Yes
Forced : No
Audio #2
ID : 3
Format : DTS
Format/Info : Digital Theater Systems
Codec ID : A_DTS
Duration : 2h 10mn
Bit rate mode : Constant
Bit rate : 1 510 Kbps
Channel(s) : 6 channels
Channel positions : Front: L C R, Side: L R, LFE
Sampling rate : 48.0 KHz
Bit depth : 16 bits
Compression mode : Lossy
Stream size : 1.38 GiB (11%)
Title : AVO, Serbin
Language : Russian
Default : No
Forced : No
Audio #3
ID : 4
Format : DTS
Format/Info : Digital Theater Systems
Codec ID : A_DTS
Duration : 2h 10mn
Bit rate mode : Constant
Bit rate : 1 510 Kbps
Channel(s) : 6 channels
Channel positions : Front: L C R, Side: L R, LFE
Sampling rate : 48.0 KHz
Bit depth : 16 bits
Compression mode : Lossy
Stream size : 1.38 GiB (11%)
Title : Original, DTS Core
Language : English
Default : No
Forced : No
Text #1
ID : 5
Format : UTF-8
Codec ID : S_TEXT/UTF8
Codec ID/Info : UTF-8 Plain Text
Title : BD Rus
Language : Russian
Default : No
Forced : No
Text #2
ID : 6
Format : UTF-8
Codec ID : S_TEXT/UTF8
Codec ID/Info : UTF-8 Plain Text
Title : English
Language : English
Default : No
Forced : No
Text #3
ID : 7
Format : UTF-8
Codec ID : S_TEXT/UTF8
Codec ID/Info : UTF-8 Plain Text
Title : Italian (SDH)
Language : Italian
Default : No
Forced : No
Menu
00:00:00.000 : en:00:00:00.000
00:08:59.875 : en:00:08:59.875
00:16:33.542 : en:00:16:33.542
00:32:53.167 : en:00:32:53.167
00:48:00.500 : en:00:48:00.500
00:53:51.500 : en:00:53:51.500
01:01:55.000 : en:01:01:55.000
01:11:45.833 : en:01:11:45.833
01:24:45.333 : en:01:24:45.333
01:34:51.708 : en:01:34:51.708
01:40:27.000 : en:01:40:27.000
01:57:58.667 : en:01:57:58.667

Скриншоты / Source vs Encode




Дополнительно

  • За работу над дублированной дорожкой спасибо Diablo (HDClub)
  • За перевод Ю. Сербина спасибо пользователям ресурса E180: oleg-k, Werewolf77, olegsoleg, Nadoelo, Эдуард, пуля, denis_mgn_1987, xerman13, Guyver, vik19662007, tide, Kastro, zeleniy, Nick, v1111o, foxlight, Водолей, safreks, saigons, triple zero, jorn2, Bilko, 2vova2, carnivale, Valen, Ken, Vladimir, MyxAmoP, Tio, Марлон, luka69, uchitel538, Palmer Eldritch, nolya, Drodder, DMX-92, Savely, dsk71, markinscor, SavineX78, Iceman, Letyoha3, Dr.Crane, Loki1982
  • Английские субтитры скачаны с сайта podnapisi
Скачать

Скачать торрент!

Как скачивать? · Что такое торрент? · Рейтинг и ограничения

Сайт не распространяет и не хранит электронные версии произведений, а лишь предоставляет доступ к создаваемому пользователями каталогу ссылок на торрент-файлы, которые содержат только списки хеш-сумм

[Профиль] [ЛС]
Показать сообщения:    
Ответить на тему

Текущее время: Сегодня 22:32

Часовой пояс: GMT + 4



Вы не можете начинать темы
Вы не можете отвечать на сообщения
Вы не можете редактировать свои сообщения
Вы не можете удалять свои сообщения
Вы не можете голосовать в опросах
Вы не можете прикреплять файлы к сообщениям
Вы не можете скачивать файлы