Короли лета / The Kings of Summer (Джордан Вогт-Робертс / Jordan Vogt-Roberts) [2013, США, драма, комедия, BDRip-AVC] VO (Д. Есарев) + Original (Eng) + Subs (Rus, Eng)

Ответить на тему
 
Автор Сообщение

user ®

Стаж: 7 лет 7 месяцев

Сообщений: 20008

Пост Пост: #1 от 10-Дек-2013 22:20

[Цитировать]

Короли лета / The Kings of Summer
«Наша жизнь - наши правила»

-Страна: США
Жанр: драма, комедия
Год выпуска: 2013
Продолжительность: 01:35:41-Перевод: Одноголосый закадровый Д. Есарев
Cубтитры: русские (Russian), английские (English)-Режиссер: Джордан Вогт-Робертс / Jordan Vogt-Roberts
В ролях: Ник Дж. Робинсон, Гэбриел Бассо, Мойзес Ариас, Ник Офферман, Эрин Мориарти, Крэйг Каковски, Уильям Сонни, Нэйтан Кийес, Кристоффер Картер, Меган Маллалли, Присцилла Качук, Марк Ивэн Джексон
Описание: Трое друзей - подростки Джо, Патрик, а также эксцентричный и непредсказуемый Биаджо - решают сбежать из родного дома в лес, чтобы начать жизнь, не зависимую от родительского контроля. Построив самодельное жильё, ребята наконец-то ощущают себя полноправными хозяевами собственной судьбы. Так начинается их идеальное лето...-Качество видео: BDRip-AVC [Blu-ray Remux]
Формат видео: MKV-Видео: AVC, 1152x480 (2.40:1), 2360 kbps, 23,976 fps, 0,178 bpp
Аудио 1: AC3 / 5.1 / 48 kHz / 448 kbps / 16 bit | VO
Аудио 2: AC3 / 5.1 / 48 kHz / 448 kbps / 16 bit | ENG
Формат субтитров: SoftSub (SRT)
--
-
-

Дополнительная информация

  • Перевод Д. Есарева осуществлен в рамках сервиса "Озвучивание". Спонсоры: gelom, ARTYq, AntiBobr, Кириллка, markinscor
  • Сценарий Криса Галлетты был в «Черном списке» (ежегодный список лучших сценариев Голливуда, не получивших экранизации) в 2009-м году. Среди других сценариев из этого списка были: «Социальная сеть» (2010), «Совсем не бабник» (2011) и «Любит / Не любит» (2011).
  • В местных телевизионных новостях сообщают, что у Джо коричневые волосы и голубые глаза. На самом деле у Джо карие глаза.

MediaInfo

General
Unique ID                                : 242543108670829850685033684912752222621 (0xB6781A842DD49808A3B199068DB6E19D)
Complete name                            : D:\ФИЛЬМЫ\The.Kings.of.Summer.2013.BDRip-AVC.andre90.mkv
Format                                   : Matroska
Format version                           : Version 4 / Version 2
File size                                : 2.18 GiB
Duration                                 : 1h 35mn
Overall bit rate                         : 3 258 Kbps
Movie name                               : Короли лета \ The Kings of Summer (2013) BDRip-AVC by andre90
Encoded date                             : UTC 2013-12-10 11:23:58
Writing application                      : mkvmerge v6.1.0 ('Old Devil') built on Mar  2 2013 14:32:37
Writing library                          : libebml v1.3.0 + libmatroska v1.4.0
Video
ID                                       : 1
Format                                   : AVC
Format/Info                              : Advanced Video Codec
Format profile                           : High@L4.1
Format settings, CABAC                   : Yes
Format settings, ReFrames                : 9 frames
Codec ID                                 : V_MPEG4/ISO/AVC
Duration                                 : 1h 35mn
Bit rate                                 : 2 360 Kbps
Width                                    : 1 152 pixels
Height                                   : 480 pixels
Display aspect ratio                     : 2.40:1
Frame rate mode                          : Constant
Frame rate                               : 23.976 fps
Color space                              : YUV
Chroma subsampling                       : 4:2:0
Bit depth                                : 8 bits
Scan type                                : Progressive
Bits/(Pixel*Frame)                       : 0.178
Stream size                              : 1.54 GiB (71%)
Writing library                          : x264 core 133 r2334 a3ac64b
Encoding settings                        : cabac=1 / ref=9 / deblock=1:-1:-2 / analyse=0x3:0x133 / me=umh / subme=10 / psy=1 / psy_rd=1.00:0.00 / mixed_ref=1 / me_range=48 / chroma_me=1 / trellis=2 / 8x8dct=1 / cqm=0 / deadzone=21,11 / fast_pskip=0 / chroma_qp_offset=-2 / threads=3 / lookahead_threads=1 / sliced_threads=0 / nr=0 / decimate=1 / interlaced=0 / bluray_compat=0 / constrained_intra=0 / bframes=11 / b_pyramid=2 / b_adapt=2 / b_bias=0 / direct=1 / weightb=1 / open_gop=0 / weightp=2 / keyint=240 / keyint_min=23 / scenecut=40 / intra_refresh=0 / rc_lookahead=40 / rc=2pass / mbtree=1 / bitrate=2360 / ratetol=1.0 / qcomp=0.60 / qpmin=0 / qpmax=69 / qpstep=4 / cplxblur=20.0 / qblur=0.5 / vbv_maxrate=62500 / vbv_bufsize=78125 / nal_hrd=none / ip_ratio=1.40 / aq=1:1.00
Language                                 : English
Default                                  : Yes
Forced                                   : No
Audio #1
ID                                       : 2
Format                                   : AC-3
Format/Info                              : Audio Coding 3
Mode extension                           : CM (complete main)
Format settings, Endianness              : Big
Codec ID                                 : A_AC3
Duration                                 : 1h 35mn
Bit rate mode                            : Constant
Bit rate                                 : 448 Kbps
Channel(s)                               : 6 channels
Channel positions                        : Front: L C R, Side: L R, LFE
Sampling rate                            : 48.0 KHz
Bit depth                                : 16 bits
Compression mode                         : Lossy
Stream size                              : 307 MiB (14%)
Title                                    : Д.Есарев
Language                                 : Russian
Default                                  : Yes
Forced                                   : No
Audio #2
ID                                       : 3
Format                                   : AC-3
Format/Info                              : Audio Coding 3
Mode extension                           : CM (complete main)
Format settings, Endianness              : Big
Codec ID                                 : A_AC3
Duration                                 : 1h 35mn
Bit rate mode                            : Constant
Bit rate                                 : 448 Kbps
Channel(s)                               : 6 channels
Channel positions                        : Front: L C R, Side: L R, LFE
Sampling rate                            : 48.0 KHz
Bit depth                                : 16 bits
Compression mode                         : Lossy
Stream size                              : 307 MiB (14%)
Language                                 : English
Default                                  : No
Forced                                   : No
Text #1
ID                                       : 4
Format                                   : UTF-8
Codec ID                                 : S_TEXT/UTF8
Codec ID/Info                            : UTF-8 Plain Text
Language                                 : Russian
Default                                  : Yes
Forced                                   : No
Text #2
ID                                       : 5
Format                                   : UTF-8
Codec ID                                 : S_TEXT/UTF8
Codec ID/Info                            : UTF-8 Plain Text
Language                                 : English
Default                                  : No
Forced                                   : No
Menu
00:00:00.000                             : en:Chapter 0
00:06:01.319                             : en:Chapter 0
00:12:20.405                             : en:Chapter 0
00:17:33.093                             : en:Chapter 0
00:24:58.246                             : en:Chapter 0
00:30:53.309                             : en:Chapter 0
00:39:52.681                             : en:Chapter 0
00:48:00.377                             : en:Chapter 0
00:53:45.764                             : en:Chapter 0
01:00:40.678                             : en:Chapter 0
01:07:38.721                             : en:Chapter 0
01:11:09.139                             : en:Chapter 0
01:17:53.460                             : en:Chapter 0
01:20:57.936                             : en:Chapter 0
01:23:26.792                             : en:Chapter 0
01:29:58.350                             : en:Chapter 0

Скриншоты



Скачать

Скачать торрент!

Как скачивать? · Что такое торрент? · Рейтинг и ограничения

Сайт не распространяет и не хранит электронные версии произведений, а лишь предоставляет доступ к создаваемому пользователями каталогу ссылок на торрент-файлы, которые содержат только списки хеш-сумм

[Профиль] [ЛС]
Показать сообщения:    
Ответить на тему

Текущее время: Сегодня 22:17

Часовой пояс: GMT + 4



Вы не можете начинать темы
Вы не можете отвечать на сообщения
Вы не можете редактировать свои сообщения
Вы не можете удалять свои сообщения
Вы не можете голосовать в опросах
Вы не можете прикреплять файлы к сообщениям
Вы не можете скачивать файлы