Ctaлинgрaд (Фёдор Бондарчук) [2013 г., Россия, боевик, военный, драма, BDRip 720p] Original (Rus) + Sub (Eng)

Ответить на тему
 
Автор Сообщение

user ®

Стаж: 7 лет 7 месяцев

Сообщений: 20008

Пост Пост: #1 от 10-Дек-2013 01:00

[Цитировать]

Сталинград
Stalingrad- Страна: Россия
Премьера: 10.10.2013
Жанр: боевик, военный, драма
Продолжительность: 2:10:49
Перевод: не требуется
Субтитры: английские
Оригинальная аудиодорожка: русский-Режиссёр: Фёдор Бондарчук
Сценарий: Илья Тилькин, Сергей Снежкин, Василий Гроссман
В ролях: Мария Смольникова (Катя), Янина Студилина (Маша), Пётр Фёдоров (капитан Громов), Томас Кречман (капитан Петер Кан), Сергей Бондарчук (Сергей), Дмитрий Лысенков (снайпер Чванов), Андрей Смоляков (артиллерист Поляков), Алексей Барабаш (разведчик Александр Никифоров) и др.-Информационные ссылки: КиноПоиск | IMDb-Тип: BDRip без хардсаба | Сэмпл
Энкод: BodoiCuHo@TayTO
Сурс: Stalingrad 2013 1080p 3D RUS Blu-ray AVC DTS-HD MA 5.1-BLUEBIRD
Видео: MKV | x264 (High@L4.1) | 1280x528 | 2.40:1 | 5 108 kbps | 23,976 fps
Аудио: Russian | int: DTS | 1510 kbps | 5.1 | 48.0 KHz
Субтитры: English | int: UTF-8
Главы: 8 шт.-Описание: 1942-й год. Сталинград. Советские войска планируют контрнаступление на немецкие части, занявшие правый берег Волги. Наступление сорвано. Лишь разведчикам под командованием капитана Громова удается перебраться на другой берег и закрепиться в одном из домов. Им дан приказ удержать его любой ценой. Кроме нескольких чудом уцелевших советских солдат они находят в доме его последнюю жительницу — 19-летнюю Катю.
Приказ отбить дом, захваченный противником, получает немецкий офицер Кан. На фоне одного из самых кровопролитных сражений в истории человечества разворачиваются истории любви и драматического противостояния характеров.
-

MI:

-
General
Unique ID                      : 217631741931105780373940870720525497752 (0xA3BA594F1D12847893309BCCA9B0F598)
Format                         : Matroska
Format version                 : Version 4 / Version 2
File size                      : 6.17 GiB
Duration                       : 2h 10mn
Overall bit rate               : 6 751 Kbps
Movie name                     : Stalingrad.2013.720p.BluRay.DTS.x264-TayTO
Encoded date                   : UTC 2013-12-09 03:40:41
Writing application            : mkvmerge v6.6.0 ('The Edge Of The In Between') built on Dec  1 2013 17:55:00
Writing library                : libebml v1.3.0 + libmatroska v1.4.1
Video
ID                             : 1
Format                         : AVC
Format/Info                    : Advanced Video Codec
Format profile                 : High@L4.1
Format settings, CABAC         : Yes
Format settings, ReFrames      : 12 frames
Codec ID                       : V_MPEG4/ISO/AVC
Duration                       : 2h 10mn
Bit rate                       : 5 108 Kbps
Width                          : 1 280 pixels
Height                         : 528 pixels
Display aspect ratio           : 2.40:1
Frame rate mode                : Constant
Frame rate                     : 23.976 fps
Color space                    : YUV
Chroma subsampling             : 4:2:0
Bit depth                      : 8 bits
Scan type                      : Progressive
Bits/(Pixel*Frame)             : 0.315
Stream size                    : 4.67 GiB (76%)
Writing library                : x264 core 140 r2377 1ca7bb9
Encoding settings              : cabac=1 / ref=12 / deblock=1:-3:-3 / analyse=0x3:0x133 / me=tesa / subme=10 / psy=1 / psy_rd=1.05:0.00 / mixed_ref=1 / me_range=16 / chroma_me=1 / trellis=2 / 8x8dct=1 / cqm=0 / deadzone=21,11 / fast_pskip=0 / chroma_qp_offset=-2 / threads=12 / lookahead_threads=3 / sliced_threads=0 / nr=0 / decimate=1 / interlaced=0 / bluray_compat=0 / constrained_intra=0 / bframes=11 / b_pyramid=2 / b_adapt=2 / b_bias=0 / direct=3 / weightb=1 / open_gop=0 / weightp=2 / keyint=250 / keyint_min=23 / scenecut=40 / intra_refresh=0 / rc=crf / mbtree=0 / crf=15.6 / qcomp=0.75 / qpmin=0 / qpmax=69 / qpstep=4 / ip_ratio=1.40 / pb_ratio=1.30 / aq=1:0.60
Language                       : English
Default                        : Yes
Forced                         : No
Matrix coefficients            : BT.709
Audio
ID                             : 2
Format                         : DTS
Format/Info                    : Digital Theater Systems
Mode                           : 16
Format settings, Endianness    : Big
Codec ID                       : A_DTS
Duration                       : 2h 10mn
Bit rate mode                  : Constant
Bit rate                       : 1 509 Kbps
Channel count                  : 6 channels
Channel positions              : Front: L C R, Side: L R, LFE
Sampling rate                  : 48.0 KHz
Bit depth                      : 24 bits
Compression mode               : Lossy
Stream size                    : 1.38 GiB (22%)
Language                       : Russian
Default                        : Yes
Forced                         : No
Text
ID                             : 3
Format                         : UTF-8
Codec ID                       : S_TEXT/UTF8
Codec ID/Info                  : UTF-8 Plain Text
Language                       : English
Default                        : Yes
Forced                         : No
Menu
00:00:00.000                   : en:00:00:00.000
00:15:37.436                   : en:00:15:37.436
00:31:59.334                   : en:00:31:59.334
00:46:05.888                   : en:00:46:05.888
01:03:22.048                   : en:01:03:22.048
01:20:44.840                   : en:01:20:44.840
01:35:53.164                   : en:01:35:53.164
01:51:11.790                   : en:01:51:11.790
-

-

Скриншоты:

-
-
-
Скачать

Скачать торрент!

Как скачивать? · Что такое торрент? · Рейтинг и ограничения

Сайт не распространяет и не хранит электронные версии произведений, а лишь предоставляет доступ к создаваемому пользователями каталогу ссылок на торрент-файлы, которые содержат только списки хеш-сумм

[Профиль] [ЛС]
Показать сообщения:    
Ответить на тему

Текущее время: Сегодня 12:30

Часовой пояс: GMT + 4



Вы не можете начинать темы
Вы не можете отвечать на сообщения
Вы не можете редактировать свои сообщения
Вы не можете удалять свои сообщения
Вы не можете голосовать в опросах
Вы не можете прикреплять файлы к сообщениям
Вы не можете скачивать файлы