Мачете убивает / Machete Kills (Роберт Родригес / Robert Rodriguez) [2013, США, Россия, боевик, комедия, HDRip] Dub (лицензия)

Ответить на тему
 
Автор Сообщение

user ®

Стаж: 7 лет 7 месяцев

Сообщений: 20008

Пост Пост: #1 от 09-Дек-2013 16:00

[Цитировать]

Мачете убивает / Machete Kills
Страна: США, Россия
Жанр: боевик, комедия
Год выпуска: 2013
Продолжительность: 01:47:59
Перевод: Профессиональный (дублированный) лицензия
Cубтитры: нет
Оригинальная аудиодорожка: нет
Режиссер:
Роберт Родригес / Robert Rodriguez
В ролях: Дэнни Трехо, Мишель Родригес, София Вергара, Эмбер Хёрд, Леди Гага, Антонио Бандерас, Кьюба Гудинг мл., Джессика Альба, Демиан Бишир, Мэл Гибсон, Чарли Шин, Ванесса Энн Хадженс, Алекса Вега
Описание:
Правительство США вербует Мачете для миссии, которую не под силу выполнить простому смертному. Мачете прорывается в Мексику, чтобы схватить безумного лидера карательного отряда и эксцентричного миллиардера, торгующего оружием, который, в свою очередь, лелеет мечту начать войну планетарного масштаба и запустить смертельно опасное оружие в космос. И только Мачете может предотвратить этот глобальный хаос.
Сэмпл:
http://multi-up.com/930787
Качество видео: HDRip
Формат видео: AVI
СМОТРЕТЬ СЕМПЛ
Видео: Xvid 720x384 24fps 1357kbps
Аудио: Dolby AC3 48000Hz 6ch 448kbps

MediaInfo

General
Complete name : F:\КИНО\Machete.ubivaet.2013.D.HDRip.1400Mb.avi
Format : AVI
Format/Info : Audio Video Interleave
File size : 1.37 GiB
Duration : 1h 47mn
Overall bit rate : 1 815 Kbps
Writing application : VirtualDubMod 1.5.10.3 (build 2550/release)
Writing library : VirtualDubMod build 2550/release
Video
ID : 0
Format : MPEG-4 Visual
Format profile : Advanced Simple@L5
Format settings, BVOP : 2
Format settings, QPel : No
Format settings, GMC : No warppoints
Format settings, Matrix : Custom
Codec ID : XVID
Codec ID/Hint : XviD
Duration : 1h 47mn
Bit rate : 1 357 Kbps
Width : 720 pixels
Height : 384 pixels
Display aspect ratio : 1.875
Frame rate : 24.000 fps
Color space : YUV
Chroma subsampling : 4:2:0
Bit depth : 8 bits
Scan type : Progressive
Compression mode : Lossy
Bits/(Pixel*Frame) : 0.205
Stream size : 1.02 GiB (75%)
Writing library : XviD 1.2.1 (UTC 2008-12-04)
Audio
ID : 1
Format : AC-3
Format/Info : Audio Coding 3
Mode extension : CM (complete main)
Codec ID : 2000
Duration : 1h 47mn
Bit rate mode : Constant
Bit rate : 448 Kbps
Channel(s) : 6 channels
Channel positions : Front: L C R, Side: L R, LFE
Sampling rate : 48.0 KHz
Bit depth : 16 bits
Compression mode : Lossy
Stream size : 346 MiB (25%)
Alignment : Split accross interleaves
Interleave, duration : 42 ms (1.00 video frame)
Interleave, preload duration : 500 ms

Скриншот c названием фильма

Скриншоты

Скачать

Скачать торрент!

Как скачивать? · Что такое торрент? · Рейтинг и ограничения

Сайт не распространяет и не хранит электронные версии произведений, а лишь предоставляет доступ к создаваемому пользователями каталогу ссылок на торрент-файлы, которые содержат только списки хеш-сумм

[Профиль] [ЛС]
Показать сообщения:    
Ответить на тему

Текущее время: Сегодня 06:24

Часовой пояс: GMT + 4



Вы не можете начинать темы
Вы не можете отвечать на сообщения
Вы не можете редактировать свои сообщения
Вы не можете удалять свои сообщения
Вы не можете голосовать в опросах
Вы не можете прикреплять файлы к сообщениям
Вы не можете скачивать файлы