Малавита / The Family (Люк Бессон / Luc Besson) [2013, США, Франция, криминал, комедия, боевик, BDRip 720p] Dub (BD RUS) + Sub Eng + Original Eng

Ответить на тему
 
Автор Сообщение

user ®

Стаж: 7 лет 7 месяцев

Сообщений: 20008

Пост Пост: #1 от 09-Дек-2013 06:30

[Цитировать]

Малавита / The Family
«Некоторые называют их организованной преступной группировкой. Другие – семьей»
Страна: США, Франция
Студия: Canal+
Жанр: криминал, комедия, боевик
Год выпуска: 2013
Продолжительность: 01:51:33-Перевод: Профессиональный (дублированный) BD RUS
Cубтитры: английские, испанские
Оригинальная аудиодорожка: английский-Режиссер: Люк Бессон / Luc Besson
В ролях: Роберт Де Ниро, Мишель Пфайффер, Томми Ли Джонс, Диана Агрон, Джон Фреда, Рикардо Сорберо, Доминик Кьянезе, Дэвид Белль, Джон Д’Лео, Джино Кафарелли
Описание: Что вы знаете о своих соседях? Особенно о тех, которые заявляются среди ночи... Так, однажды на тихой улочке провинциального французского городка поселился писатель по фамилии Блейк, со своим семейством и собакой Малавитой. На этом многовековое спокойствие города закончилось. Почему сгорел местный супермаркет? Чем рискует медлительный водопроводчик? Что лежит в рюкзаке у милого парня в бежевых бриджах?
Кто бы мог представить, что на самом деле мистер Блейк - бывший глава мафии, которого власти прячут здесь от преследования. И вот в городок приезжают люди «Коза Ностры»...
Рип от: TayTO (HDBits internal).
Сэмпл: sendfile→, rusfolder→
Тип релиза: BDRip 720p
Контейнер: MKV
Видео: 1280 x 536 (2.388), x264, High@L4.1, 23.976 fps, ~ 8 185 Kbps
Аудио#1: 48 kHz, DTS 5.0 - 1509 kbps |Дубляж, BD RUS|
Аудио#2: 48 kHz, DTS 5.1 - 1509 kbps |Оригинал|
Формат субтитров: softsub (SRT)

MediaInfo

Полное имя : The.Family.2013.720p.BluRay.DTS.x264-TayTO.Rus.Eng.mkv
Формат : Matroska
Версия формата : Version 4 / Version 2
Размер файла : 8,88 Гбайт
Продолжительность : 1 ч. 51 м.
Общий поток : 11,4 Мбит/сек
Название фильма : The Family (2013) | Rip by TayTO
Дата кодирования : UTC 2013-12-08 13:44:49
Программа кодирования : mkvmerge v6.5.0 ('Isn't she lovely') built on Oct 20 2013 12:50:05
Библиотека кодирования : libebml v1.3.0 + libmatroska v1.4.1
Видео
Идентификатор : 1
Формат : AVC
Формат/Информация : Advanced Video Codec
Профиль формата : High@L4.1
Параметр CABAC формата : Да
Параметр ReFrames формата : 12 кадров
Идентификатор кодека : V_MPEG4/ISO/AVC
Продолжительность : 1 ч. 51 м.
Битрейт : 8157 Кбит/сек
Ширина : 1280 пикселей
Высота : 536 пикселей
Соотношение сторон : 2,40:1
Режим частоты кадров : Постоянный
Частота кадров : 23,976 кадра/сек
Цветовое пространство : YUV
Субдискретизация насыщенности : 4:2:0
Битовая глубина : 8 бит
Тип развёртки : Прогрессивная
Бит/(Пиксели*Кадры) : 0.496
Размер потока : 6,36 Гбайт (72%)
Заголовок : The Family (2013) by Djex
Библиотека кодирования : x264 core 140 r2377 1ca7bb9
Настройки программы : cabac=1 / ref=12 / deblock=1:-3:-3 / analyse=0x3:0x133 / me=tesa / subme=11 / psy=1 / psy_rd=1.00:0.00 / mixed_ref=1 / me_range=16 / chroma_me=1 / trellis=2 / 8x8dct=1 / cqm=0 / deadzone=21,11 / fast_pskip=0 / chroma_qp_offset=-2 / threads=12 / lookahead_threads=3 / sliced_threads=0 / nr=0 / decimate=1 / interlaced=0 / bluray_compat=0 / constrained_intra=0 / bframes=10 / b_pyramid=2 / b_adapt=2 / b_bias=0 / direct=3 / weightb=1 / open_gop=0 / weightp=2 / keyint=250 / keyint_min=23 / scenecut=40 / intra_refresh=0 / rc=crf / mbtree=0 / crf=15.6 / qcomp=0.70 / qpmin=0 / qpmax=69 / qpstep=4 / ip_ratio=1.40 / pb_ratio=1.30 / aq=1:0.90
Язык : English
Default : Да
Forced : Нет
Коэффициенты матрицы : BT.709
Аудио #1
Идентификатор : 2
Формат : DTS
Формат/Информация : Digital Theater Systems
Режим : 16
Параметр Endianness формата : Big
Идентификатор кодека : A_DTS
Продолжительность : 1 ч. 51 м.
Вид битрейта : Постоянный
Битрейт : 1509 Кбит/сек
Каналы : 5 каналов
Расположение каналов : Front: L C R, Side: L R
Частота : 48,0 КГц
Битовая глубина : 16 бит
Метод сжатия : С потерями
Размер потока : 1,18 Гбайт (13%)
Заголовок : DTS 5.0 - 1509 kbps |Дубляж, BD RUS|
Язык : Russian
Default : Да
Forced : Нет
Аудио #2
Идентификатор : 3
Формат : DTS
Формат/Информация : Digital Theater Systems
Режим : 16
Параметр Endianness формата : Big
Идентификатор кодека : A_DTS
Продолжительность : 1 ч. 51 м.
Вид битрейта : Постоянный
Битрейт : 1509 Кбит/сек
Каналы : 6 каналов
Расположение каналов : Front: L C R, Side: L R, LFE
Частота : 48,0 КГц
Битовая глубина : 24 бит
Метод сжатия : С потерями
Размер потока : 1,18 Гбайт (13%)
Заголовок : DTS 5.1 - 1509 kbps |Оригинал|
Язык : English
Default : Нет
Forced : Нет
Текст #1
Идентификатор : 4
Формат : UTF-8
Идентификатор кодека : S_TEXT/UTF8
Идентификатор кодека/Информация : UTF-8 Plain Text
Язык : English
Default : Нет
Forced : Нет
Текст #2
Идентификатор : 5
Формат : UTF-8
Идентификатор кодека : S_TEXT/UTF8
Идентификатор кодека/Информация : UTF-8 Plain Text
Язык : Spanish
Default : Нет
Forced : Нет
Меню
00:00:00.000 : en:00:00:00.000
00:06:26.720 : en:00:06:26.720
00:09:57.430 : en:00:09:57.430
00:13:23.636 : en:00:13:23.636
00:17:10.947 : en:00:17:10.947
00:22:08.494 : en:00:22:08.494
00:27:46.081 : en:00:27:46.081
00:31:46.822 : en:00:31:46.822
00:36:56.256 : en:00:36:56.256
00:42:52.737 : en:00:42:52.737
00:45:10.207 : en:00:45:10.207
00:54:17.171 : en:00:54:17.171
00:58:33.093 : en:00:58:33.093
01:02:21.988 : en:01:02:21.988
01:04:30.033 : en:01:04:30.033
01:07:11.945 : en:01:07:11.945
01:12:59.125 : en:01:12:59.125
01:17:25.266 : en:01:17:25.266
01:25:00.095 : en:01:25:00.095
01:28:02.819 : en:01:28:02.819
01:31:05.627 : en:01:31:05.627
01:35:11.122 : en:01:35:11.122
01:44:14.874 : en:01:44:14.874
01:45:17.102 : en:01:45:17.102

Скриншоты



Скачать

Скачать торрент!

Как скачивать? · Что такое торрент? · Рейтинг и ограничения

Сайт не распространяет и не хранит электронные версии произведений, а лишь предоставляет доступ к создаваемому пользователями каталогу ссылок на торрент-файлы, которые содержат только списки хеш-сумм

[Профиль] [ЛС]
Показать сообщения:    
Ответить на тему

Текущее время: Сегодня 22:24

Часовой пояс: GMT + 4



Вы не можете начинать темы
Вы не можете отвечать на сообщения
Вы не можете редактировать свои сообщения
Вы не можете удалять свои сообщения
Вы не можете голосовать в опросах
Вы не можете прикреплять файлы к сообщениям
Вы не можете скачивать файлы