Повелитель лавин / Prince Avalanche (Дэвид Гордон Грин / David Gordon Green) [2013, США, Драма, комедия, BDRip] DVO (Ozz tv) + Original (Eng) + Sub (Rus, Eng)

Ответить на тему
 
Автор Сообщение

user ®

Стаж: 7 лет 7 месяцев

Сообщений: 20008

Пост Пост: #1 от 09-Дек-2013 06:30

[Цитировать]

Повелитель лавин / Prince Avalanche- Страна: США
Жанр: Драма, комедия
Год выпуска: 2013
Продолжительность: 01:33:21-Перевод: Профессиональный (двухголосый закадровый) [Ozz tv]
Cубтитры: русские, английские [внешние, srt]
Оригинальная аудиодорожка: английский-Режиссер: Дэвид Гордон Грин / David Gordon Green-В ролях: Пол Радд, Эмиль Хирш, Лэнс ЛеГолт, Джойс Пэйн, Джина Гранде, Линн Шелтон, Ларри Кречмар, Энок Мун, Дэвид Л. Осборн мл., Дэнни Уолкотт-Описание: Элвин и Лэнс проводят лето 1988 года в пустынном, выжженном пожарами лесу, занимаясь монотонной работой, перекрашивая знаки на бесконечной проселочной дороге. Лэнсу нелегко в этой глуши прожить без вечеринок и девочек, в отличие от более серьезного Элвина, который пишет страстные письма своей девушке, старшей сестре Лэнса. На протяжении этого долгого лета они встречают только одного человека — таинственного водителя грузовика, который щедро угощает их домашней выпивкой, а затем исчезает так же внезапно, как и появился.-Sample | IMDB | КиноПоиск-Тип релиза: BDRip [исх. Blu-ray 1080p]
Формат видео: AVI-Видео: 720x304 (2.37:1), 23.976 fps, XviD build 50, 2386 kbps avg, 0.46 bit/pixel
Аудио 1: 48 kHz, AC3 Dolby Digital, 3/2 (L,C,R,l,r) + LFE ch, 448.00 kbps avg [Russian_DVO]
Аудио 2: 48 kHz, AC3 Dolby Digital, 3/2 (L,C,R,l,r) + LFE ch, 448.00 kbps avg [Original_Eng]-Релиз группы:[

MediaInfo

General
Complete name : D:\Мои раздачи\Prince Avalanche_BDRip_RG_All_Films\Prince Avalanche_BDRip_RG_All_Films.avi
Format : AVI
Format/Info : Audio Video Interleave
Format profile : OpenDML
File size : 2.15 GiB
Duration : 1h 33mn
Overall bit rate : 3 300 Kbps
Writing application : VirtualDubMod 1.6.0.0 SURROUND (build 2560/release)
Writing library : VirtualDubMod build 2560/release
Video
ID : 0
Format : MPEG-4 Visual
Format profile : Advanced Simple@L5
Format settings, BVOP : Yes
Format settings, QPel : No
Format settings, GMC : No warppoints
Format settings, Matrix : Custom
Codec ID : XVID
Codec ID/Hint : XviD
Duration : 1h 33mn
Bit rate : 2 386 Kbps
Width : 720 pixels
Height : 304 pixels
Display aspect ratio : 2.35:1
Frame rate : 23.976 fps
Color space : YUV
Chroma subsampling : 4:2:0
Bit depth : 8 bits
Scan type : Progressive
Compression mode : Lossy
Bits/(Pixel*Frame) : 0.455
Stream size : 1.56 GiB (72%)
Writing library : XviD 1.2.1 (UTC 2008-12-04)
Audio #1
ID : 1
Format : AC-3
Format/Info : Audio Coding 3
Mode extension : CM (complete main)
Codec ID : 2000
Duration : 1h 33mn
Bit rate mode : Constant
Bit rate : 448 Kbps
Channel(s) : 6 channels
Channel positions : Front: L C R, Side: L R, LFE
Sampling rate : 48.0 KHz
Bit depth : 16 bits
Compression mode : Lossy
Stream size : 299 MiB (14%)
Alignment : Split accross interleaves
Interleave, duration : 42 ms (1.00 video frame)
Interleave, preload duration : 500 ms
Audio #2
ID : 2
Format : AC-3
Format/Info : Audio Coding 3
Mode extension : CM (complete main)
Codec ID : 2000
Duration : 1h 33mn
Bit rate mode : Constant
Bit rate : 448 Kbps
Channel(s) : 6 channels
Channel positions : Front: L C R, Side: L R, LFE
Sampling rate : 48.0 KHz
Bit depth : 16 bits
Compression mode : Lossy
Stream size : 299 MiB (14%)
Alignment : Split accross interleaves
Interleave, duration : 42 ms (1.00 video frame)
Interleave, preload duration : 500 ms

Скриншоты

Скачать

Скачать торрент!

Как скачивать? · Что такое торрент? · Рейтинг и ограничения

Сайт не распространяет и не хранит электронные версии произведений, а лишь предоставляет доступ к создаваемому пользователями каталогу ссылок на торрент-файлы, которые содержат только списки хеш-сумм

[Профиль] [ЛС]
Показать сообщения:    
Ответить на тему

Текущее время: Сегодня 10:42

Часовой пояс: GMT + 4



Вы не можете начинать темы
Вы не можете отвечать на сообщения
Вы не можете редактировать свои сообщения
Вы не можете удалять свои сообщения
Вы не можете голосовать в опросах
Вы не можете прикреплять файлы к сообщениям
Вы не можете скачивать файлы