Ученик чародея / The Sorcerer\'s Apprentice (Джон Тёртелтауб / Jon Turteltaub) [2010, США, фэнтези, боевик, драма, комедия, приключения, BDRip 1080p] Dub + AVO (Гаврилов) + VO (Дасевич) + Sub Rus, Eng, Ukr + Original Eng + Ukr

Ответить на тему
 
Автор Сообщение

user ®

Стаж: 7 лет 7 месяцев

Сообщений: 20008

Пост Пост: #1 от 08-Дек-2013 19:55

[Цитировать]

Ученик чародея / The Sorcerer's Apprentice Страна: США
Студия: Broken Road Productions, Jerry Bruckheimer Films, Junction Entertainment, Saturn Films, Walt Disney
Жанр: фэнтези, боевик, драма, комедия, приключения
Год выпуска: 2010
Продолжительность: 01:49:02
Перевод 1: Профессиональный (дублированный) Blu-ray
Перевод 2: Авторский (одноголосый закадровый) А.Гаврилов
Перевод 3: Одноголосый (закадровый) А.Дасевич
Cубтитры: русские(forced,full),украинские(forced,full),английские
Оригинальная аудиодорожка: английский
Режиссер: Джон Тёртелтауб / Jon Turteltaub
В ролях: Николас Кейдж, Джей Барушель, Альфред Молина, Тереза Палмер, Тоби Кеббелл, Омар Бенсон Миллер, Моника Беллуччи, Элис Крайдж, Джэйк Черри, Джеймс А. Стефенс
Описание: Манхэттен, наши дни. Мастер магии Бальтазар Блэйк пытается защитить Нью-Йорк от своего старого врага Максима Хорвата — злобного колдуна с самыми черными планами. Однако, Бальтазар чувствует, что не справится один и ему нужен помощник. На эту роль он выбирает самого обычного парня Дэйва, который вовсе не хочет спасать мир. Однако ему придется пройти ускоренный курс магии и вступить в битву.

Тип релиза: BDRip 1080p[EbP]
Контейнер: MKV
Видео: AVC, 1920x800,13700 kbps, 23.976 fps
Аудио 1: Russian: 48 kHz, AC3, 3/2 (L,C,R,l,r) + LFE ch, ~640.00 kbps avg |Blu-ray|
Аудио 2: Ukrainian: 48 kHz, AC3, 3/2 (L,C,R,l,r) + LFE ch, ~640.00 kbps avg |Blu-ray|
Аудио 3: Russian: 48 kHz, DTS, 3/2 (L,C,R,l,r) + LFE ch, ~1536 kbps avg |Гаврилов|
Аудио 4: Russian: 48 kHz, DTS, 3/2 (L,C,R,l,r) + LFE ch, ~1536 kbps avg |Дасевич|
Аудио 5: English: 48 kHz, DTS, 3/2 (L,C,R,l,r) + LFE ch, ~1536 kbps avg |Original|
Чаптеры:есть,подписаны

MediaInfo

General
Unique ID : 214996170455201353021833906519369663702 (0xA1BEC19A4F389B24B63036CE9DBD44D6)
Complete name : D:\The.Sorcerers.Apprentice.2010.1080p.BluRay.DTS.x264-Talian-.mkv
Format : Matroska
Format version : Version 2
File size : 14.9 GiB
Duration : 1h 49mn
Overall bit rate : 19.5 Mbps
Movie name : -Talian-
Encoded date : UTC 2013-12-08 13:55:49
Writing application : mkvmerge v5.7.0 ('The Whirlwind') built on Jul 8 2012 20:08:51
Writing library : libebml v1.2.3 + libmatroska v1.3.0
Video
ID : 1
Format : AVC
Format/Info : Advanced Video Codec
Format profile : High@L4.1
Format settings, CABAC : Yes
Format settings, ReFrames : 5 frames
Codec ID : V_MPEG4/ISO/AVC
Duration : 1h 49mn
Bit rate : 13.7 Mbps
Width : 1 920 pixels
Height : 800 pixels
Display aspect ratio : 2.40:1
Frame rate : 23.976 fps
Color space : YUV
Chroma subsampling : 4:2:0
Bit depth : 8 bits
Scan type : Progressive
Bits/(Pixel*Frame) : 0.372
Stream size : 10.1 GiB (68%)
Title : EbP
Writing library : x264 core 107 r1766 f9f0035
Encoding settings : cabac=1 / ref=5 / deblock=1:-3:-3 / analyse=0x3:0x133 / me=umh / subme=10 / psy=1 / psy_rd=1.00:0.00 / mixed_ref=1 / me_range=24 / chroma_me=1 / trellis=2 / 8x8dct=1 / cqm=0 / deadzone=21,11 / fast_pskip=0 / chroma_qp_offset=-2 / threads=18 / sliced_threads=0 / nr=0 / decimate=0 / interlaced=0 / constrained_intra=0 / bframes=9 / b_pyramid=2 / b_adapt=2 / b_bias=0 / direct=3 / weightb=1 / open_gop=0 / weightp=2 / keyint=250 / keyint_min=23 / scenecut=40 / intra_refresh=0 / rc=2pass / mbtree=0 / bitrate=13700 / ratetol=1.0 / qcomp=0.60 / qpmin=10 / qpmax=51 / qpstep=4 / cplxblur=20.0 / qblur=0.5 / ip_ratio=1.40 / pb_ratio=1.30 / aq=2:1.00
Language : English
Default : Yes
Forced : No
Audio #1
ID : 2
Format : AC-3
Format/Info : Audio Coding 3
Mode extension : CM (complete main)
Format settings, Endianness : Big
Codec ID : A_AC3
Duration : 1h 49mn
Bit rate mode : Constant
Bit rate : 640 Kbps
Channel(s) : 6 channels
Channel positions : Front: L C R, Side: L R, LFE
Sampling rate : 48.0 KHz
Bit depth : 16 bits
Compression mode : Lossy
Stream size : 499 MiB (3%)
Title : DUB-Blu-ray
Language : Russian
Default : Yes
Forced : No
Audio #2
ID : 3
Format : AC-3
Format/Info : Audio Coding 3
Mode extension : CM (complete main)
Format settings, Endianness : Big
Codec ID : A_AC3
Duration : 1h 49mn
Bit rate mode : Constant
Bit rate : 640 Kbps
Channel(s) : 6 channels
Channel positions : Front: L C R, Side: L R, LFE
Sampling rate : 48.0 KHz
Bit depth : 16 bits
Compression mode : Lossy
Stream size : 499 MiB (3%)
Title : DUB-Blu-ray
Language : Ukrainian
Default : No
Forced : No
Audio #3
ID : 4
Format : DTS
Format/Info : Digital Theater Systems
Codec ID : A_DTS
Duration : 1h 49mn
Bit rate mode : Constant
Bit rate : 1 510 Kbps
Channel(s) : 6 channels
Channel positions : Front: L C R, Side: L R, LFE
Sampling rate : 48.0 KHz
Bit depth : 16 bits
Compression mode : Lossy
Stream size : 1.15 GiB (8%)
Title : AVO-Гаврилов
Language : Russian
Default : No
Forced : No
Audio #4
ID : 5
Format : DTS
Format/Info : Digital Theater Systems
Codec ID : A_DTS
Duration : 1h 49mn
Bit rate mode : Constant
Bit rate : 1 510 Kbps
Channel(s) : 6 channels
Channel positions : Front: L C R, Side: L R, LFE
Sampling rate : 48.0 KHz
Bit depth : 24 bits
Compression mode : Lossy
Stream size : 1.15 GiB (8%)
Title : VO-Дасевич
Language : Russian
Default : No
Forced : No
Audio #5
ID : 6
Format : DTS
Format/Info : Digital Theater Systems
Codec ID : A_DTS
Duration : 1h 49mn
Bit rate mode : Constant
Bit rate : 1 510 Kbps
Channel(s) : 6 channels
Channel positions : Front: L C R, Side: L R, LFE
Sampling rate : 48.0 KHz
Bit depth : 24 bits
Compression mode : Lossy
Delay relative to video : 11ms
Stream size : 1.15 GiB (8%)
Title : Original
Language : English
Default : No
Forced : No
Text #1
ID : 7
Format : UTF-8
Codec ID : S_TEXT/UTF8
Codec ID/Info : UTF-8 Plain Text
Title : Sub-forced
Language : Russian
Default : Yes
Forced : No
Text #2
ID : 8
Format : UTF-8
Codec ID : S_TEXT/UTF8
Codec ID/Info : UTF-8 Plain Text
Title : Sub
Language : Russian
Default : No
Forced : No
Text #3
ID : 9
Format : UTF-8
Codec ID : S_TEXT/UTF8
Codec ID/Info : UTF-8 Plain Text
Title : Sub-forced
Language : Ukrainian
Default : No
Forced : No
Text #4
ID : 10
Format : UTF-8
Codec ID : S_TEXT/UTF8
Codec ID/Info : UTF-8 Plain Text
Title : Sub
Language : Ukrainian
Default : No
Forced : No
Text #5
ID : 11
Format : UTF-8
Codec ID : S_TEXT/UTF8
Codec ID/Info : UTF-8 Plain Text
Title : Sub
Language : English
Default : No
Forced : No
Text #6
ID : 12
Format : UTF-8
Codec ID : S_TEXT/UTF8
Codec ID/Info : UTF-8 Plain Text
Title : Sub
Language : French
Default : No
Forced : No
Text #7
ID : 13
Format : UTF-8
Codec ID : S_TEXT/UTF8
Codec ID/Info : UTF-8 Plain Text
Title : Sub
Language : Spanish
Default : No
Forced : No
Menu
00:00:00.000 : en:The War Of The Sorcerers
00:04:11.168 : en:Field Trip To Areana Cabana
00:14:54.519 : en:Becky And Dave Reunite
00:20:58.716 : en:Horvath And Balthazar Return
00:25:27.985 : en:Balthazar Recruits Dave
00:31:09.326 : en:Chinatown
00:37:08.893 : en:"I'd Like To Learn More"
00:42:25.793 : en:Horvath Finds Drake
00:49:11.240 : en:Becky Stops By
00:53:41.301 : en:Bathroom Fight
00:57:56.139 : en:The Prime Merlinean
01:01:53.168 : en:A Mess In The Lab
01:07:04.270 : en:Dave Finds Becky Again
01:12:41.315 : en:Car Chase
01:17:24.849 : en:Veronica's Story
01:21:33.972 : en:Going After The Grimhold
01:25:44.806 : en:Dave Comes Clean With Becky
01:28:31.264 : en:The Rising
01:34:04.722 : en:Dave Joins The Fight
01:39:01.686 : en:Balthazar is Dead
01:42:38.819 : en:End Credits

Скриншоты

Source vs Encode



Скачать

Скачать торрент!

Как скачивать? · Что такое торрент? · Рейтинг и ограничения

Сайт не распространяет и не хранит электронные версии произведений, а лишь предоставляет доступ к создаваемому пользователями каталогу ссылок на торрент-файлы, которые содержат только списки хеш-сумм

[Профиль] [ЛС]
Показать сообщения:    
Ответить на тему

Текущее время: Сегодня 16:10

Часовой пояс: GMT + 4



Вы не можете начинать темы
Вы не можете отвечать на сообщения
Вы не можете редактировать свои сообщения
Вы не можете удалять свои сообщения
Вы не можете голосовать в опросах
Вы не можете прикреплять файлы к сообщениям
Вы не можете скачивать файлы