Малавита / The Family (Люк Бессон / Luc Besson) [2013, США, Франция, Криминал, комедия, боевик, BDRip] Dub

Ответить на тему
 
Автор Сообщение

user ®

Стаж: 7 лет 7 месяцев

Сообщений: 20008

Пост Пост: #1 от 08-Дек-2013 19:55

[Цитировать]

-Малавита / The Family
«Некоторые называют их организованной преступной группировкой. Другие – семьей»
- Год выпуска: 2013
Выпущено: США, Франция / EuropaCorp, Relativity Media
Жанр: криминал, комедия, боевик
Продолжительность: 01:51:33
Перевод: Профессиональный (полное дублирование) BD RUS
Субтитры: нет-Режиссер:
Люк Бессон / Luc Besson-В ролях:
Роберт Де Ниро (Fred Blake /Giovanni Manzoni), Мишель Пфайффер (Maggie Blake), Томми Ли Джонс (Robert Stansfield), Дианна Агрон (Belle Blake), Джон Д’Лео (Warren Blake), Джон Фреда (Rocco), Джимми Палумбо (Di Cicco), Доменик Ломбардоззи (Caputo), Стэн Карп (Don Luchese), Винсент Пасторе (Fat Willy)-Описание:
Что вы знаете о своих соседях? Особенно о тех, которые заявляются среди ночи… Так, однажды на тихой улочке провинциального французского городка поселился писатель по фамилии Блейк, со своим семейством и собакой Малавитой. На этом многовековое спокойствие города закончилось. Почему сгорел местный супермаркет? Чем рискует медлительный водопроводчик? Что лежит в рюкзаке у милого парня в бежевых бриджах?
Кто бы мог представить, что на самом деле мистер Блейк — бывший глава мафии, которого власти прячут здесь от преследования. И вот в городок приезжают люди «Коза Ностры»…-| IMDB | КиноПоиск | Сэмпл |-Качество: BDRip [THE_FAMILY_REMUX_HDCLUB]
Формат: AVI
Видео: 688x288 (2.39:1), 23.976 fps, XviD build 73 ~798 kbps avg, 0.17 bit/pixel
Аудио: 48 kHz, MPEG Layer 3, 2 ch, ~128.00 kbps avg
-

Скриншоты

MediaInfo

General
Complete name                            : D:\Malavita_2013_BDRip_745_US_by_Dalemake.avi
Format                                   : AVI
Format/Info                              : Audio Video Interleave
File size                                : 746 MiB
Duration                                 : 1h 51mn
Overall bit rate                         : 936 Kbps
Writing application                      : VirtualDubMod 1.5.10.3 | www.virtualdub-fr.org || (build 2550/release)
Writing library                          : VirtualDubMod build 2550/release
Video
ID                                       : 0
Format                                   : MPEG-4 Visual
Format profile                           : Advanced Simple@L5
Format settings, BVOP                    : 1
Format settings, QPel                    : No
Format settings, GMC                     : No warppoints
Format settings, Matrix                  : Custom
Codec ID                                 : XVID
Codec ID/Hint                            : XviD
Duration                                 : 1h 51mn
Bit rate                                 : 798 Kbps
Width                                    : 688 pixels
Height                                   : 288 pixels
Display aspect ratio                     : 2.40:1
Frame rate                               : 23.976 fps
Color space                              : YUV
Chroma subsampling                       : 4:2:0
Bit depth                                : 8 bits
Scan type                                : Progressive
Compression mode                         : Lossy
Bits/(Pixel*Frame)                       : 0.168
Stream size                              : 637 MiB (85%)
Writing library                          : XviD 73
Audio
ID                                       : 1
Format                                   : MPEG Audio
Format version                           : Version 1
Format profile                           : Layer 3
Codec ID                                 : 55
Codec ID/Hint                            : MP3
Duration                                 : 1h 51mn
Bit rate mode                            : Constant
Bit rate                                 : 128 Kbps
Channel(s)                               : 2 channels
Sampling rate                            : 48.0 KHz
Compression mode                         : Lossy
Stream size                              : 102 MiB (14%)
Alignment                                : Aligned on interleaves
Interleave, duration                     : 42 ms (1.00 video frame)
Interleave, preload duration             : 504 ms
Writing library                          : LAME3.99r
Encoding settings                        : -m s -V 4 -q 2 -lowpass 17 -b 128
Скачать

Скачать торрент!

Как скачивать? · Что такое торрент? · Рейтинг и ограничения

Сайт не распространяет и не хранит электронные версии произведений, а лишь предоставляет доступ к создаваемому пользователями каталогу ссылок на торрент-файлы, которые содержат только списки хеш-сумм

[Профиль] [ЛС]
Показать сообщения:    
Ответить на тему

Текущее время: Сегодня 15:38

Часовой пояс: GMT + 4



Вы не можете начинать темы
Вы не можете отвечать на сообщения
Вы не можете редактировать свои сообщения
Вы не можете удалять свои сообщения
Вы не можете голосовать в опросах
Вы не можете прикреплять файлы к сообщениям
Вы не можете скачивать файлы