Парклэнд / Parkland (Питер Ландесман / Peter Landesman) [2013, США, триллер, драма, детектив, HDRip] VO (datynet)

Ответить на тему
 
Автор Сообщение

user ®

Стаж: 7 лет 7 месяцев

Сообщений: 20008

Пост Пост: #1 от 08-Дек-2013 13:35

[Цитировать]

Парклэнд / Parkland
Страна: США
Жанр: триллер, драма, детектив
Год выпуска: 2013
Продолжительность: 01:33:39
Перевод: Одноголосый закадровый [datynet]
Cубтитры: нет
Оригинальная аудиодорожка: нет
Режиссер: Питер Ландесман / Peter Landesman
В ролях: Зак Эфрон, Марша Гей Харден, Билли Боб Торнтон, Джеки Уивер, Пол Джаматти, Мэтт Барр, Мэллори Мой, Битси Таллоч, Рон Ливингстон, Джейсон Дуглас, Дэвид Харбор, Джеймс Бэдж Дэйл
Описание: 1963 год. 22 ноября. Даллас. 11:50. Президентский кортеж движется в центр города. 12:30. Раздаются роковые выстрелы. 13:00. Госпиталь Парклэнд. 35-й президент США скончался.
Что стало поводом к убийству президента? Вопрос, который вот уже полвека держит в напряжении человечество... Последняя версия одного из самых громких и неразгаданных преступлений XX века, убийство Джона Ф. Кеннеди - любимого страной президента, молодого умного политика, гениального любовника, водившего опасные романы - с Мэрлин Монро, и еще сотнями красивейших женщин Америки.

Сэмпл: http://multi-up.com/930397
Качество видео: HDRip (Исх. BDRip 720p)
Формат видео: AVI
Видео: 624x352 (1.77:1), 23.976 fps, XviD build 50 ~910 kbps avg, 0.17 bit/pixel
Аудио: 44.100 kHz, MPEG Layer 3, 2 ch, ~192.00 kbps avg

MediaInfo

Общее
Полное имя : S:\Фильмы\Паркленд. 2013. HDRip.avi
Формат : AVI
Формат/Информация : Audio Video Interleave
Размер файла : 744 Мбайт
Продолжительность : 1 ч. 33 м.
Общий поток : 1111 Кбит/сек
Программа кодирования : VirtualDubMod 1.5.10.3 | www.virtualdub-fr.org || (build 2550/release)
Библиотека кодирования : VirtualDubMod build 2550/release
Видео
Идентификатор : 0
Формат : MPEG-4 Visual
Профиль формата : Advanced Simple@L5
Параметр BVOP формата : 2
Параметр QPel формата : Нет
Параметр GMC формата : Без точки перехода
Параметр матрицы формата : Выборочная
Идентификатор кодека : XVID
Идентификатор кодека/Подсказка : XviD
Продолжительность : 1 ч. 33 м.
Битрейт : 910 Кбит/сек
Ширина : 624 пикс.
Высота : 352 пикс.
Соотношение сторон : 16:9
Частота кадров : 23,976 кадр/сек
Цветовое пространство : YUV
Подвыборка цветности : 4:2:0
Битовая глубина : 8 бит
Тип развёртки : Прогрессивная
Метод сжатия : С потерями
Бит/(Пиксели*Кадры) : 0.173
Размер потока : 609 Мбайт (82%)
Библиотека кодирования : XviD 1.2.1 (UTC 2008-12-04)
Аудио
Идентификатор : 1
Формат : MPEG Audio
Версия формата : Version 1
Профиль формата : Layer 3
Идентификатор кодека : 55
Идентификатор кодека/Подсказка : MP3
Продолжительность : 1 ч. 33 м.
Вид битрейта : Постоянный
Битрейт : 192 Кбит/сек
Каналы : 2 канала
Частота : 44,1 КГц
Метод сжатия : С потерями
Размер потока : 129 Мбайт (17%)
Выравнивание : Разделение по промежуткам
Продолжительность промежутка : 42 мс. (1,00 видеокадр)
Время предзагрузки промежутка : 500 ms

Скриншот c названием фильма

Скриншоты

Скачать

Скачать торрент!

Как скачивать? · Что такое торрент? · Рейтинг и ограничения

Сайт не распространяет и не хранит электронные версии произведений, а лишь предоставляет доступ к создаваемому пользователями каталогу ссылок на торрент-файлы, которые содержат только списки хеш-сумм

[Профиль] [ЛС]
Показать сообщения:    
Ответить на тему

Текущее время: Сегодня 13:40

Часовой пояс: GMT + 4



Вы не можете начинать темы
Вы не можете отвечать на сообщения
Вы не можете редактировать свои сообщения
Вы не можете удалять свои сообщения
Вы не можете голосовать в опросах
Вы не можете прикреплять файлы к сообщениям
Вы не можете скачивать файлы