Зови меня сумасшедшим / Call Me Crazy (Лора Дерн / Laura Dern, Брайс Даллас Ховард / Bryce Dallas Howard, Бонни Хант / Bonnie Hunt) [2013, США, Драма, HDTVRip] MVO

Ответить на тему
 
Автор Сообщение

user ®

Стаж: 7 лет 7 месяцев

Сообщений: 20008

Пост Пост: #1 от 08-Дек-2013 13:35

[Цитировать]

Зови меня сумасшедшим / Call Me Crazy
Страна: США
Жанр: Драма
Год выпуска: 2013
Продолжительность: 01:24:52
Перевод: Профессиональный (многоголосый, закадровый)
Cубтитры: нет
Оригинальная аудиодорожка: нет
Режиссер: Лора Дерн, Брайс Даллас Ховард, Бонни Хант / Laura Dern, Bryce Dallas Howard, Bonnie Hunt
В ролях: Бриттани Сноу, Дженнифер Хадсон, Сара Хайланд, Мелисса Лео, Митч Раус, Октавия Спенсер, София Васильева, Эрни Хадсон, Джейсон Риттер, Джин Смарт
Описание: Фильм состоит из пяти коротких историй, каждая из которых названа именем главного героя (Люси, Эдди, Эллисон, Грейс и Мегги). Пятерых персонажей объединяет один недуг: психическое расстройство
Доп. информация: IMDB:7.4
Сэмпл: http://multi-up.com/930417
Качество видео: HDTVRip
Формат видео: AVI
Видео: 720x400,25 fps,XviD build 50,2047 kbps avg,0.28 bit/pixel
Аудио: 48 kHz,AC3 Dolby Digital,2/0 (L,R) ch,256 kbps

MediaInfo

Общее
Полное имя : D:\Filmi\Zovi.menya.symashedshim.2013.HDTVRip.1400Mb.avi
Формат : AVI
Формат/Информация : Audio Video Interleave
Размер файла : 1,37 Гбайт
Продолжительность : 1 ч. 24 м.
Общий поток : 2313 Кбит/сек
Видео
Идентификатор : 0
Формат : MPEG-4 Visual
Профиль формата : Advanced Simple@L5
Параметр BVOP формата : 1
Параметр QPel формата : Нет
Параметр GMC формата : Без точки перехода
Параметр матрицы формата : Default (H.263)
Идентификатор кодека : XVID
Идентификатор кодека/Подсказка : XviD
Продолжительность : 1 ч. 24 м.
Битрейт : 2048 Кбит/сек
Ширина : 720 пикселей
Высота : 400 пикселей
Соотношение сторон : 16:9
Частота кадров : 25,000 кадров/сек
Цветовое пространство : YUV
Субдискретизация насыщенности : 4:2:0
Битовая глубина : 8 бит
Тип развёртки : Прогрессивная
Бит/(Пиксели*Кадры) : 0.284
Размер потока : 1,21 Гбайт (89%)
Библиотека кодирования : XviD 1.2.1 (UTC 2008-12-04)
Аудио
Идентификатор : 1
Формат : AC-3
Формат/Информация : Audio Coding 3
Расширение режима : CM (complete main)
Параметр Endianness формата : Big
Идентификатор кодека : 2000
Продолжительность : 1 ч. 24 м.
Вид битрейта : Постоянный
Битрейт : 256 Кбит/сек
Каналы : 2 канала
Расположение каналов : Front: L R
Частота : 48,0 КГц
Битовая глубина : 16 бит
Размер потока : 155 Мбайт (11%)
Выравнивание : Разделение по промежуткам
Продолжительность промежутка : 40 мс. (1,00 видеокадр)
Время предзагрузки промежутка : 500 мс.

Скриншот c названием фильма

Скриншоты

Скачать

Скачать торрент!

Как скачивать? · Что такое торрент? · Рейтинг и ограничения

Сайт не распространяет и не хранит электронные версии произведений, а лишь предоставляет доступ к создаваемому пользователями каталогу ссылок на торрент-файлы, которые содержат только списки хеш-сумм

[Профиль] [ЛС]
Показать сообщения:    
Ответить на тему

Текущее время: Сегодня 18:10

Часовой пояс: GMT + 4



Вы не можете начинать темы
Вы не можете отвечать на сообщения
Вы не можете редактировать свои сообщения
Вы не можете удалять свои сообщения
Вы не можете голосовать в опросах
Вы не можете прикреплять файлы к сообщениям
Вы не можете скачивать файлы