Джеки Браун / Jackie Brown (Квентин Тарантино / Quentin Tarantino) [1997, США, Триллер, криминал, Blu-ray disc 1080p] MVO + DVO + Subs Rus, Eng + Original Eng

Ответить на тему
 
Автор Сообщение

user ®

Стаж: 7 лет 7 месяцев

Сообщений: 20008

Пост Пост: #1 от 08-Дек-2013 01:40

[Цитировать]


Джеки Браун
Jackie Brown

Страна: США
Студия: A Band Apart, Lawrence Bender Productions, Miramax Films
Жанр: Триллер, криминал
Год выпуска: 1997
Продолжительность: 02:34:25
Перевод 1: Профессиональный (многоголосый закадровый)
Перевод 2: Профессиональный (двухголосый закадровый)
Cубтитры: русские, английские
Оригинальная аудиодорожка: английский
Режиссер: Квентин Тарантино / Quentin Tarantino
В ролях: Пэм Гриер, Сэмюэл Л. Джексон, Роберт Форстер, Бриджит Фонда, Майкл Китон, Роберт Де Ниро, Майкл Боуэн, Крис Такер, Лиза Гэй Хэмилтон, Том «Тайни» Листер мл.
Описание: Фильм поставлен по роману Элмора Леонарда. Героиня по имени Джекки Браун работает стюардессой и подрабатывает контрабандой наличных денег в страну для торговца оружием. Все складывается отлично до того момента, пока ее не арестовывают федеральные агенты. На свободе она может остаться, только «заложив» торговца. Рисковая девушка принимает решение: и «пол-лимона зеленых» присвоить, и от торговца оружием избавиться. А вот останется ли она сама в живых?…

Награды:

Оскар, 1998 год
Номинации (1):
Лучшая мужская роль второго плана (Роберт Форстер)
Золотой глобус, 1998 год
Номинации (2):
Лучшая мужская роль (комедия или мюзикл) (Сэмюэл Л. Джексон)
Лучшая женская роль (комедия или мюзикл) (Пэм Гриер)
Премия канала «MTV», 1998 год
Номинации (1):
Лучшая мужская роль (Сэмюэл Л. Джексон)
Берлинский кинофестиваль, 1998 год
Победитель (1):
Серебряный Медведь за лучшую мужскую роль (Сэмюэл Л. Джексон)
Номинации (1):
Золотой Медведь
Сатурн, 1998 год
Номинации (2):
Лучшая актриса (Пэм Гриер)
Лучший актер второго плана (Роберт Форстер)
Премия Гильдии актеров, 1998 год
Номинации (1):
Лучшая женская роль (Пэм Гриер)
*****
Возраст: зрителям, достигшим 16 лет
Рейтинг MPAA: - Лицам до 17 лет обязательно присутствие взрослого
*****
Меню: русское, анимированное, озвученное
Бонусы: (русский закадровый перевод)
Трейлер
«Джеки Браун»: Как все начиналось
Оглядываясь на «Джеки Браун» - интервью с Квентином Тарантино
Цыпочки со стволами
Удаленные и альтернативные сцены
Сискел и Эберт: поговорим о «Джеки Браун»

Тип релиза: Blu-ray disc
Контейнер: BDMV
Видео: MPEG-4 AVC Video 23907 kbps 1080p / 23,976 fps / 16:9 / High Profile 4.1
Аудио 1: DTS-HD Master Audio Russian 1687 kbps 5.1 / 48 kHz / 1687 kbps / 16-bit (DTS Core: 5.1 / 48 kHz / 1509 kbps / 16-bit)
Аудио 2: Dolby Digital Audio Russian 448 kbps 5.1 / 48 kHz / 448 kbps
Аудио 3: DTS-HD Master Audio English 1864 kbps 5.1 / 48 kHz / 1864 kbps / 16-bit (DTS Core: 5.1 / 48 kHz / 1509 kbps / 16-bit)

BDInfo

Disc Title: Jackie Brown_1997
Disc Size: 40 752 539 972 bytes
Protection: AACS
BD-Java: No
Extras: 50Hz Content
BDInfo: 0.5.8
Notes:
BDINFO HOME:
Cinema Squid
http://www.cinemasquid.com/blu-ray/tools/bdinfo
INCLUDES FORUMS REPORT FOR:
AVS Forum Blu-ray Audio and Video Specifications Thread
http://www.avsforum.com/avs-vb/showthread.php?t=1155731
********************
PLAYLIST: 00003.MPLS
********************
Total   Video
Title                                                           Codec   Length  Movie Size      Disc Size       Bitrate Bitrate Main Audio Track                          Secondary Audio Track
-----                                                           ------  ------- --------------  --------------  ------- ------- ------------------                        ---------------------
00003.MPLS                                                      AVC     2:34:25 34 474 395 648  40 752 539 972  29,76   23,91   DTS-HD Master 5.1 1687Kbps (48kHz/16-bit) DD AC3 5.1 448Kbps
DISC INFO:
Disc Title:     Jackie Brown_1997
Disc Size:      40 752 539 972 bytes
Protection:     AACS
BD-Java:        No
Extras:         50Hz Content
BDInfo:         0.5.8
PLAYLIST REPORT:
Name:                   00003.MPLS
Length:                 2:34:25.756 (h:m:s.ms)
Size:                   34 474 395 648 bytes
Total Bitrate:          29,76 Mbps
VIDEO:
Codec                   Bitrate             Description
-----                   -------             -----------
MPEG-4 AVC Video        23907 kbps          1080p / 23,976 fps / 16:9 / High Profile 4.1
AUDIO:
Codec                           Language        Bitrate         Description
-----                           --------        -------         -----------
DTS-HD Master Audio             Russian         1687 kbps       5.1 / 48 kHz / 1687 kbps / 16-bit (DTS Core: 5.1 / 48 kHz / 1509 kbps / 16-bit)
Dolby Digital Audio             Russian         448 kbps        5.1 / 48 kHz / 448 kbps
DTS-HD Master Audio             English         1864 kbps       5.1 / 48 kHz / 1864 kbps / 16-bit (DTS Core: 5.1 / 48 kHz / 1509 kbps / 16-bit)
SUBTITLES:
Codec                           Language        Bitrate         Description
-----                           --------        -------         -----------
Presentation Graphics           Russian         42,748 kbps
Presentation Graphics           English         50,515 kbps
FILES:
Name            Time In         Length          Size            Total Bitrate
----            -------         ------          ----            -------------
00005.M2TS      0:00:00.000     2:34:25.756     34 474 395 648  29 765
CHAPTERS:
Number          Time In         Length          Avg Video Rate  Max 1-Sec Rate  Max 1-Sec Time  Max 5-Sec Rate  Max 5-Sec Time  Max 10Sec Rate  Max 10Sec Time  Avg Frame Size  Max Frame Size  Max Frame Time
------          -------         ------          --------------  --------------  --------------  --------------  --------------  --------------  --------------  --------------  --------------  --------------
1               0:00:00.000     0:14:22.903     25 045 kbps     37 307 kbps     00:06:40.817    36 402 kbps     00:04:13.795    35 831 kbps     00:04:01.449    130 569 bytes   329 568 bytes   00:01:53.655
2               0:14:22.903     0:11:11.337     21 445 kbps     36 734 kbps     00:18:46.375    34 979 kbps     00:18:44.998    31 568 kbps     00:18:43.038    111 803 bytes   290 212 bytes   00:22:10.245
3               0:25:34.241     0:10:09.150     23 629 kbps     32 116 kbps     00:33:15.201    30 712 kbps     00:28:39.384    29 313 kbps     00:28:34.421    123 190 bytes   266 023 bytes   00:31:10.535
4               0:35:43.391     0:16:03.504     20 736 kbps     36 723 kbps     00:42:19.328    35 329 kbps     00:41:16.974    32 120 kbps     00:41:16.974    108 109 bytes   307 465 bytes   00:42:20.913
5               0:51:46.895     0:10:30.212     24 718 kbps     36 776 kbps     00:53:35.712    33 299 kbps     00:53:35.462    32 161 kbps     00:53:35.337    128 868 bytes   380 243 bytes   00:54:58.837
6               1:02:17.108     0:15:25.758     23 245 kbps     33 927 kbps     01:03:38.898    30 761 kbps     01:07:50.232    30 582 kbps     01:07:48.731    121 187 bytes   342 548 bytes   01:08:55.965
7               1:17:42.866     0:11:59.301     24 310 kbps     35 133 kbps     01:23:21.454    31 011 kbps     01:26:40.111    30 581 kbps     01:26:40.069    126 742 bytes   342 243 bytes   01:21:03.233
8               1:29:42.168     0:12:30.583     24 951 kbps     37 198 kbps     01:39:37.972    36 027 kbps     01:39:28.754    35 810 kbps     01:39:29.004    130 082 bytes   297 180 bytes   01:29:50.468
9               1:42:12.751     0:13:30.893     31 497 kbps     38 540 kbps     01:49:59.676    36 869 kbps     01:51:23.843    36 754 kbps     01:52:04.759    164 210 bytes   325 907 bytes   01:51:44.781
10              1:55:43.645     0:15:12.620     25 572 kbps     37 721 kbps     01:58:31.813    36 860 kbps     01:55:47.357    36 774 kbps     01:55:49.859    133 319 bytes   318 054 bytes   01:55:59.827
11              2:10:56.265     0:09:58.764     22 976 kbps     33 290 kbps     02:18:41.604    30 330 kbps     02:18:38.518    29 203 kbps     02:18:33.596    119 788 bytes   277 912 bytes   02:19:28.985
12              2:20:55.029     0:13:30.726     18 734 kbps     36 286 kbps     02:24:24.113    35 822 kbps     02:24:20.026    34 645 kbps     02:24:15.021    97 685 bytes    346 389 bytes   02:24:32.080
STREAM DIAGNOSTICS:
File            PID             Type            Codec           Language                Seconds                 Bitrate                 Bytes           Packets
----            ---             ----            -----           --------                --------------          --------------          -------------   -----
00005.M2TS      4113 (0x1011)   0x1B            AVC                                     9265,590                23 907                  27 689 392 655  150 615 216
00005.M2TS      4352 (0x1100)   0x86            DTS-HD MA       rus (Russian)           9265,590                1 687                   1 953 976 612   11 952 753
00005.M2TS      4353 (0x1101)   0x81            AC3             rus (Russian)           9265,590                448                     518 534 912     2 893 610
00005.M2TS      4354 (0x1102)   0x86            DTS-HD MA       eng (English)           9265,590                1 864                   2 158 831 956   13 167 474
00005.M2TS      4608 (0x1200)   0x90            PGS             rus (Russian)           9265,590                43                      49 511 556      282 637
00005.M2TS      4609 (0x1201)   0x90            PGS             eng (English)           9265,590                51                      58 507 314      332 014
QUICK SUMMARY:
Disc Title: Jackie Brown_1997
Disc Size: 40 752 539 972 bytes
Protection: AACS
BD-Java: No
Playlist: 00003.MPLS
Size: 34 474 395 648 bytes
Length: 2:34:25.756
Total Bitrate: 29,76 Mbps
Video: MPEG-4 AVC Video / 23907 kbps / 1080p / 23,976 fps / 16:9 / High Profile 4.1
Audio: Russian / DTS-HD Master Audio / 5.1 / 48 kHz / 1687 kbps / 16-bit (DTS Core: 5.1 / 48 kHz / 1509 kbps / 16-bit)
Audio: Russian / Dolby Digital Audio / 5.1 / 48 kHz / 448 kbps
Audio: English / DTS-HD Master Audio / 5.1 / 48 kHz / 1864 kbps / 16-bit (DTS Core: 5.1 / 48 kHz / 1509 kbps / 16-bit)
Subtitle: Russian / 42,748 kbps
Subtitle: English / 50,515 kbps
********************
PLAYLIST: 00008.MPLS
********************
Total   Video
Title                                                           Codec   Length  Movie Size      Disc Size       Bitrate Bitrate Main Audio Track                          Secondary Audio Track
-----                                                           ------  ------- --------------  --------------  ------- ------- ------------------                        ---------------------
00008.MPLS                                                      MPEG-2  0:54:42 2 697 910 272   40 752 539 972  6,57    6,00    DD AC3 2.0 192Kbps
DISC INFO:
Disc Title:     Jackie Brown_1997
Disc Size:      40 752 539 972 bytes
Protection:     AACS
BD-Java:        No
Extras:         50Hz Content
BDInfo:         0.5.8
PLAYLIST REPORT:
Name:                   00008.MPLS
Length:                 0:54:42.840 (h:m:s.ms)
Size:                   2 697 910 272 bytes
Total Bitrate:          6,57 Mbps
VIDEO:
Codec                   Bitrate             Description
-----                   -------             -----------
MPEG-2 Video            6000 kbps           576i / 25 fps / 4:3
AUDIO:
Codec                           Language        Bitrate         Description
-----                           --------        -------         -----------
Dolby Digital Audio             Russian         192 kbps        2.0 / 48 kHz / 192 kbps / DN -4dB
FILES:
Name            Time In         Length          Size            Total Bitrate
----            -------         ------          ----            -------------
00013.M2TS      0:00:00.000     0:54:42.840     2 697 910 272   6 575
CHAPTERS:
Number          Time In         Length          Avg Video Rate  Max 1-Sec Rate  Max 1-Sec Time  Max 5-Sec Rate  Max 5-Sec Time  Max 10Sec Rate  Max 10Sec Time  Avg Frame Size  Max Frame Size  Max Frame Time
------          -------         ------          --------------  --------------  --------------  --------------  --------------  --------------  --------------  --------------  --------------  --------------
1               0:00:00.000     0:04:54.760     6 003 kbps      7 592 kbps      00:00:07.559    6 295 kbps      00:00:49.639    6 144 kbps      00:03:35.960    30 012 bytes    114 827 bytes   00:00:46.960
2               0:04:54.760     0:05:55.240     5 999 kbps      7 585 kbps      00:06:37.799    6 293 kbps      00:09:13.640    6 153 kbps      00:06:37.400    29 997 bytes    112 659 bytes   00:06:39.760
3               0:10:50.000     0:05:47.680     5 999 kbps      6 978 kbps      00:16:00.359    6 177 kbps      00:13:24.200    6 073 kbps      00:13:23.880    29 993 bytes    109 177 bytes   00:14:22.960
4               0:16:37.680     0:06:02.799     6 001 kbps      7 461 kbps      00:17:18.240    6 286 kbps      00:17:27.080    6 142 kbps      00:17:18.320    30 005 bytes    111 237 bytes   00:17:30.160
5               0:22:40.480     0:06:17.920     5 999 kbps      7 593 kbps      00:28:39.239    6 305 kbps      00:28:39.080    6 144 kbps      00:24:32.119    29 993 bytes    110 678 bytes   00:24:34.480
6               0:28:58.400     0:06:17.920     6 001 kbps      7 562 kbps      00:33:48.360    6 276 kbps      00:33:47.719    6 144 kbps      00:33:39.080    30 005 bytes    106 592 bytes   00:30:22.000
7               0:35:16.320     0:06:45.639     6 000 kbps      7 566 kbps      00:39:54.600    6 313 kbps      00:39:50.600    6 143 kbps      00:41:49.400    30 002 bytes    112 309 bytes   00:41:53.200
8               0:42:01.960     0:07:08.279     5 999 kbps      7 573 kbps      00:43:07.200    6 287 kbps      00:44:21.800    6 147 kbps      00:44:21.560    29 995 bytes    109 634 bytes   00:44:24.400
9               0:49:10.239     0:05:32.600     5 998 kbps      6 988 kbps      00:49:46.920    6 183 kbps      00:49:40.080    6 060 kbps      00:52:56.600    29 993 bytes    106 512 bytes   00:51:21.040
STREAM DIAGNOSTICS:
File            PID             Type            Codec           Language                Seconds                 Bitrate                 Bytes           Packets
----            ---             ----            -----           --------                --------------          --------------          -------------   -----
00013.M2TS      4113 (0x1011)   0x02            MPEG-2                                  3282,720                6 000                   2 462 072 775   13 428 670
00013.M2TS      4352 (0x1100)   0x81            AC3             rus (Russian)           3282,720                192                     78 787 584      512 940
QUICK SUMMARY:
Disc Title: Jackie Brown_1997
Disc Size: 40 752 539 972 bytes
Protection: AACS
BD-Java: No
Playlist: 00008.MPLS
Size: 2 697 910 272 bytes
Length: 0:54:42.840
Total Bitrate: 6,57 Mbps
Video: MPEG-2 Video / 6000 kbps / 576i / 25 fps / 4:3
Audio: Russian / Dolby Digital Audio / 2.0 / 48 kHz / 192 kbps / DN -4dB
********************
PLAYLIST: 00007.MPLS
********************
Total   Video
Title                                                           Codec   Length  Movie Size      Disc Size       Bitrate Bitrate Main Audio Track                          Secondary Audio Track
-----                                                           ------  ------- --------------  --------------  ------- ------- ------------------                        ---------------------
00007.MPLS                                                      MPEG-2  0:38:53 1 917 904 896   40 752 539 972  6,57    6,00    DD AC3 2.0 192Kbps
DISC INFO:
Disc Title:     Jackie Brown_1997
Disc Size:      40 752 539 972 bytes
Protection:     AACS
BD-Java:        No
Extras:         50Hz Content
BDInfo:         0.5.8
PLAYLIST REPORT:
Name:                   00007.MPLS
Length:                 0:38:53.719 (h:m:s.ms)
Size:                   1 917 904 896 bytes
Total Bitrate:          6,57 Mbps
VIDEO:
Codec                   Bitrate             Description
-----                   -------             -----------
MPEG-2 Video            6000 kbps           576i / 25 fps / 4:3
AUDIO:
Codec                           Language        Bitrate         Description
-----                           --------        -------         -----------
Dolby Digital Audio             Russian         192 kbps        2.0 / 48 kHz / 192 kbps / DN -4dB
FILES:
Name            Time In         Length          Size            Total Bitrate
----            -------         ------          ----            -------------
00012.M2TS      0:00:00.000     0:38:53.719     1 917 904 896   6 575
CHAPTERS:
Number          Time In         Length          Avg Video Rate  Max 1-Sec Rate  Max 1-Sec Time  Max 5-Sec Rate  Max 5-Sec Time  Max 10Sec Rate  Max 10Sec Time  Avg Frame Size  Max Frame Size  Max Frame Time
------          -------         ------          --------------  --------------  --------------  --------------  --------------  --------------  --------------  --------------  --------------  --------------
1               0:00:00.000     0:04:55.520     6 002 kbps      7 537 kbps      00:02:36.360    6 291 kbps      00:00:03.559    6 145 kbps      00:00:00.120    30 007 bytes    129 281 bytes   00:00:16.240
2               0:04:55.520     0:04:34.000     5 999 kbps      7 317 kbps      00:05:26.279    6 289 kbps      00:05:51.080    6 125 kbps      00:05:51.440    29 993 bytes    143 111 bytes   00:08:17.680
3               0:09:29.520     0:05:33.160     6 001 kbps      7 388 kbps      00:14:34.200    6 298 kbps      00:14:32.359    6 147 kbps      00:14:27.320    30 006 bytes    140 961 bytes   00:09:43.599
4               0:15:02.680     0:05:08.039     5 999 kbps      7 354 kbps      00:16:47.400    6 295 kbps      00:19:39.080    6 140 kbps      00:19:19.320    29 997 bytes    132 953 bytes   00:16:47.920
5               0:20:10.720     0:05:40.279     6 001 kbps      7 254 kbps      00:23:00.359    6 246 kbps      00:23:48.800    6 109 kbps      00:20:54.440    30 003 bytes    134 247 bytes   00:23:05.200
6               0:25:51.000     0:06:23.280     5 998 kbps      7 307 kbps      00:28:57.000    6 298 kbps      00:31:37.160    6 137 kbps      00:30:58.760    29 990 bytes    135 235 bytes   00:28:00.880
7               0:32:14.280     0:06:39.439     5 999 kbps      7 542 kbps      00:37:45.960    6 300 kbps      00:37:45.800    6 156 kbps      00:33:37.880    29 999 bytes    130 568 bytes   00:33:47.440
STREAM DIAGNOSTICS:
File            PID             Type            Codec           Language                Seconds                 Bitrate                 Bytes           Packets
----            ---             ----            -----           --------                --------------          --------------          -------------   -----
00012.M2TS      4113 (0x1011)   0x02            MPEG-2                                  2333,640                6 000                   1 750 232 775   9 546 243
00012.M2TS      4352 (0x1100)   0x81            AC3             rus (Russian)           2333,640                192                     56 008 704      364 640
QUICK SUMMARY:
Disc Title: Jackie Brown_1997
Disc Size: 40 752 539 972 bytes
Protection: AACS
BD-Java: No
Playlist: 00007.MPLS
Size: 1 917 904 896 bytes
Length: 0:38:53.719
Total Bitrate: 6,57 Mbps
Video: MPEG-2 Video / 6000 kbps / 576i / 25 fps / 4:3
Audio: Russian / Dolby Digital Audio / 2.0 / 48 kHz / 192 kbps / DN -4dB
********************
PLAYLIST: 00010.MPLS
********************
Total   Video
Title                                                           Codec   Length  Movie Size      Disc Size       Bitrate Bitrate Main Audio Track                          Secondary Audio Track
-----                                                           ------  ------- --------------  --------------  ------- ------- ------------------                        ---------------------
00010.MPLS                                                      MPEG-2  0:15:30 764 233 728     40 752 539 972  6,57    6,00    DD AC3 2.0 192Kbps
DISC INFO:
Disc Title:     Jackie Brown_1997
Disc Size:      40 752 539 972 bytes
Protection:     AACS
BD-Java:        No
Extras:         50Hz Content
BDInfo:         0.5.8
PLAYLIST REPORT:
Name:                   00010.MPLS
Length:                 0:15:30.320 (h:m:s.ms)
Size:                   764 233 728 bytes
Total Bitrate:          6,57 Mbps
VIDEO:
Codec                   Bitrate             Description
-----                   -------             -----------
MPEG-2 Video            5997 kbps           576i / 25 fps / 4:3
AUDIO:
Codec                           Language        Bitrate         Description
-----                           --------        -------         -----------
Dolby Digital Audio             Russian         192 kbps        2.0 / 48 kHz / 192 kbps / DN -4dB
FILES:
Name            Time In         Length          Size            Total Bitrate
----            -------         ------          ----            -------------
00015.M2TS      0:00:00.000     0:03:02.600     150 011 904     6 572
00016.M2TS      0:03:02.600     0:01:52.639     92 522 496      6 571
00017.M2TS      0:04:55.240     0:01:04.679     53 108 736      6 569
00018.M2TS      0:05:59.919     0:00:43.240     35 487 744      6 566
00019.M2TS      0:06:43.159     0:01:50.080     90 421 248      6 571
00020.M2TS      0:08:33.240     0:05:04.640     250 324 992     6 574
00021.M2TS      0:13:37.880     0:01:52.440     92 356 608      6 571
CHAPTERS:
Number          Time In         Length          Avg Video Rate  Max 1-Sec Rate  Max 1-Sec Time  Max 5-Sec Rate  Max 5-Sec Time  Max 10Sec Rate  Max 10Sec Time  Avg Frame Size  Max Frame Size  Max Frame Time
------          -------         ------          --------------  --------------  --------------  --------------  --------------  --------------  --------------  --------------  --------------  --------------
1               0:00:00.000     0:03:02.600     5 998 kbps      7 593 kbps      00:00:00.360    6 270 kbps      00:00:00.200    6 109 kbps      00:00:00.440    29 983 bytes    113 138 bytes   00:00:00.759
2               0:03:02.600     0:01:52.639     5 996 kbps      7 063 kbps      00:04:51.920    6 175 kbps      00:03:39.760    6 074 kbps      00:04:42.680    29 980 bytes    121 882 bytes   00:03:47.640
3               0:04:55.240     0:01:04.679     5 993 kbps      7 047 kbps      00:04:55.600    6 128 kbps      00:05:18.159    6 066 kbps      00:04:55.680    29 964 bytes    103 943 bytes   00:05:01.880
4               0:05:59.919     0:00:43.240     5 990 kbps      6 886 kbps      00:06:00.039    6 155 kbps      00:06:05.880    6 077 kbps      00:06:00.360    29 948 bytes    97 414 bytes    00:06:14.240
5               0:06:43.159     0:01:50.080     5 996 kbps      6 910 kbps      00:06:43.520    6 173 kbps      00:06:43.360    6 062 kbps      00:06:43.600    29 979 bytes    101 134 bytes   00:07:11.400
6               0:08:33.240     0:05:04.640     5 999 kbps      7 141 kbps      00:10:38.880    6 193 kbps      00:10:27.680    6 110 kbps      00:08:33.680    29 993 bytes    116 796 bytes   00:09:54.760
7               0:13:37.880     0:01:52.440     5 995 kbps      7 511 kbps      00:13:38.000    6 254 kbps      00:13:38.080    6 122 kbps      00:13:38.320    29 986 bytes    121 542 bytes   00:13:39.720
STREAM DIAGNOSTICS:
File            PID             Type            Codec           Language                Seconds                 Bitrate                 Bytes           Packets
----            ---             ----            -----           --------                --------------          --------------          -------------   -----
00015.M2TS      4113 (0x1011)   0x02            MPEG-2                                  182,520                 6 000                   136 892 775     746 640
00015.M2TS      4352 (0x1100)   0x81            AC3             rus (Russian)           182,520                 192                     4 382 208       28 530
00016.M2TS      4113 (0x1011)   0x02            MPEG-2                                  112,560                 6 000                   84 422 775      460 483
00016.M2TS      4352 (0x1100)   0x81            AC3             rus (Russian)           112,560                 192                     2 702 592       17 595
00017.M2TS      4113 (0x1011)   0x02            MPEG-2                                  64,560                  6 004                   48 452 775      264 296
00017.M2TS      4352 (0x1100)   0x81            AC3             rus (Russian)           64,560                  192                     1 552 128       10 105
00018.M2TS      4113 (0x1011)   0x02            MPEG-2                                  43,080                  6 012                   32 372 775      176 599
00018.M2TS      4352 (0x1100)   0x81            AC3             rus (Russian)           43,080                  193                     1 037 568       6 755
00019.M2TS      4113 (0x1011)   0x02            MPEG-2                                  109,920                 6 005                   82 502 775      450 032
00019.M2TS      4352 (0x1100)   0x81            AC3             rus (Russian)           109,920                 192                     2 641 152       17 195
00020.M2TS      4113 (0x1011)   0x02            MPEG-2                                  304,560                 6 000                   228 422 775     1 245 925
00020.M2TS      4352 (0x1100)   0x81            AC3             rus (Russian)           304,560                 192                     7 310 592       47 595
00021.M2TS      4113 (0x1011)   0x02            MPEG-2                                  112,320                 6 002                   84 272 775      459 666
00021.M2TS      4352 (0x1100)   0x81            AC3             rus (Russian)           112,320                 192                     2 697 984       17 565
QUICK SUMMARY:
Disc Title: Jackie Brown_1997
Disc Size: 40 752 539 972 bytes
Protection: AACS
BD-Java: No
Playlist: 00010.MPLS
Size: 764 233 728 bytes
Length: 0:15:30.320
Total Bitrate: 6,57 Mbps
Video: MPEG-2 Video / 5997 kbps / 576i / 25 fps / 4:3
Audio: Russian / Dolby Digital Audio / 2.0 / 48 kHz / 192 kbps / DN -4dB
********************
PLAYLIST: 00009.MPLS
********************
Total   Video
Title                                                           Codec   Length  Movie Size      Disc Size       Bitrate Bitrate Main Audio Track                          Secondary Audio Track
-----                                                           ------  ------- --------------  --------------  ------- ------- ------------------                        ---------------------
00009.MPLS                                                      MPEG-2  0:04:51 239 861 760     40 752 539 972  6,57    6,00    DD AC3 2.0 192Kbps
DISC INFO:
Disc Title:     Jackie Brown_1997
Disc Size:      40 752 539 972 bytes
Protection:     AACS
BD-Java:        No
Extras:         50Hz Content
BDInfo:         0.5.8
PLAYLIST REPORT:
Name:                   00009.MPLS
Length:                 0:04:51.919 (h:m:s.ms)
Size:                   239 861 760 bytes
Total Bitrate:          6,57 Mbps
VIDEO:
Codec                   Bitrate             Description
-----                   -------             -----------
MPEG-2 Video            5998 kbps           576i / 25 fps / 4:3
AUDIO:
Codec                           Language        Bitrate         Description
-----                           --------        -------         -----------
Dolby Digital Audio             Russian         192 kbps        2.0 / 48 kHz / 192 kbps / DN -4dB
FILES:
Name            Time In         Length          Size            Total Bitrate
----            -------         ------          ----            -------------
00014.M2TS      0:00:00.000     0:04:51.919     239 861 760     6 573
CHAPTERS:
Number          Time In         Length          Avg Video Rate  Max 1-Sec Rate  Max 1-Sec Time  Max 5-Sec Rate  Max 5-Sec Time  Max 10Sec Rate  Max 10Sec Time  Avg Frame Size  Max Frame Size  Max Frame Time
------          -------         ------          --------------  --------------  --------------  --------------  --------------  --------------  --------------  --------------  --------------  --------------
1               0:00:00.000     0:04:51.919     5 998 kbps      7 487 kbps      00:00:48.360    6 282 kbps      00:00:46.279    6 130 kbps      00:04:28.520    29 992 bytes    135 984 bytes   00:03:48.880
STREAM DIAGNOSTICS:
File            PID             Type            Codec           Language                Seconds                 Bitrate                 Bytes           Packets
----            ---             ----            -----           --------                --------------          --------------          -------------   -----
00014.M2TS      4113 (0x1011)   0x02            MPEG-2                                  291,840                 6 000                   218 882 775     1 193 846
00014.M2TS      4352 (0x1100)   0x81            AC3             rus (Russian)           291,840                 192                     7 005 696       45 610
QUICK SUMMARY:
Disc Title: Jackie Brown_1997
Disc Size: 40 752 539 972 bytes
Protection: AACS
BD-Java: No
Playlist: 00009.MPLS
Size: 239 861 760 bytes
Length: 0:04:51.919
Total Bitrate: 6,57 Mbps
Video: MPEG-2 Video / 5998 kbps / 576i / 25 fps / 4:3
Audio: Russian / Dolby Digital Audio / 2.0 / 48 kHz / 192 kbps / DN -4dB
********************
PLAYLIST: 00011.MPLS
********************
Total   Video
Title                                                           Codec   Length  Movie Size      Disc Size       Bitrate Bitrate Main Audio Track                          Secondary Audio Track
-----                                                           ------  ------- --------------  --------------  ------- ------- ------------------                        ---------------------
00011.MPLS                                                      MPEG-2  0:04:45 234 909 696     40 752 539 972  6,57    6,00    DD AC3 2.0 192Kbps
DISC INFO:
Disc Title:     Jackie Brown_1997
Disc Size:      40 752 539 972 bytes
Protection:     AACS
BD-Java:        No
Extras:         50Hz Content
BDInfo:         0.5.8
PLAYLIST REPORT:
Name:                   00011.MPLS
Length:                 0:04:45.880 (h:m:s.ms)
Size:                   234 909 696 bytes
Total Bitrate:          6,57 Mbps
VIDEO:
Codec                   Bitrate             Description
-----                   -------             -----------
MPEG-2 Video            5998 kbps           576i / 25 fps / 4:3
AUDIO:
Codec                           Language        Bitrate         Description
-----                           --------        -------         -----------
Dolby Digital Audio             Russian         192 kbps        2.0 / 48 kHz / 192 kbps / DN -4dB
FILES:
Name            Time In         Length          Size            Total Bitrate
----            -------         ------          ----            -------------
00022.M2TS      0:00:00.000     0:04:45.880     234 909 696     6 574
CHAPTERS:
Number          Time In         Length          Avg Video Rate  Max 1-Sec Rate  Max 1-Sec Time  Max 5-Sec Rate  Max 5-Sec Time  Max 10Sec Rate  Max 10Sec Time  Avg Frame Size  Max Frame Size  Max Frame Time
------          -------         ------          --------------  --------------  --------------  --------------  --------------  --------------  --------------  --------------  --------------  --------------
1               0:00:00.000     0:04:45.880     5 998 kbps      7 448 kbps      00:00:00.360    6 234 kbps      00:04:35.240    6 113 kbps      00:02:30.920    29 992 bytes    117 887 bytes   00:00:01.840
STREAM DIAGNOSTICS:
File            PID             Type            Codec           Language                Seconds                 Bitrate                 Bytes           Packets
----            ---             ----            -----           --------                --------------          --------------          -------------   -----
00022.M2TS      4113 (0x1011)   0x02            MPEG-2                                  285,720                 6 002                   214 352 775     1 169 223
00022.M2TS      4352 (0x1100)   0x81            AC3             rus (Russian)           285,720                 192                     6 860 544       44 665
QUICK SUMMARY:
Disc Title: Jackie Brown_1997
Disc Size: 40 752 539 972 bytes
Protection: AACS
BD-Java: No
Playlist: 00011.MPLS
Size: 234 909 696 bytes
Length: 0:04:45.880
Total Bitrate: 6,57 Mbps
Video: MPEG-2 Video / 5998 kbps / 576i / 25 fps / 4:3
Audio: Russian / Dolby Digital Audio / 2.0 / 48 kHz / 192 kbps / DN -4dB
********************
PLAYLIST: 00006.MPLS
********************
Total   Video
Title                                                           Codec   Length  Movie Size      Disc Size       Bitrate Bitrate Main Audio Track                          Secondary Audio Track
-----                                                           ------  ------- --------------  --------------  ------- ------- ------------------                        ---------------------
00006.MPLS                                                      MPEG-2  0:03:53 191 410 176     40 752 539 972  6,57    5,99    DD AC3 2.0 192Kbps
DISC INFO:
Disc Title:     Jackie Brown_1997
Disc Size:      40 752 539 972 bytes
Protection:     AACS
BD-Java:        No
Extras:         50Hz Content
BDInfo:         0.5.8
PLAYLIST REPORT:
Name:                   00006.MPLS
Length:                 0:03:53.000 (h:m:s.ms)
Size:                   191 410 176 bytes
Total Bitrate:          6,57 Mbps
VIDEO:
Codec                   Bitrate             Description
-----                   -------             -----------
MPEG-2 Video            5994 kbps           576i / 25 fps / 4:3
AUDIO:
Codec                           Language        Bitrate         Description
-----                           --------        -------         -----------
Dolby Digital Audio             Russian         192 kbps        2.0 / 48 kHz / 192 kbps / DN -4dB
FILES:
Name            Time In         Length          Size            Total Bitrate
----            -------         ------          ----            -------------
00009.M2TS      0:00:00.000     0:00:51.240     42 074 112      6 569
00010.M2TS      0:00:51.240     0:01:31.960     75 558 912      6 573
00011.M2TS      0:02:23.200     0:01:29.799     73 777 152      6 573
CHAPTERS:
Number          Time In         Length          Avg Video Rate  Max 1-Sec Rate  Max 1-Sec Time  Max 5-Sec Rate  Max 5-Sec Time  Max 10Sec Rate  Max 10Sec Time  Avg Frame Size  Max Frame Size  Max Frame Time
------          -------         ------          --------------  --------------  --------------  --------------  --------------  --------------  --------------  --------------  --------------  --------------
1               0:00:00.000     0:00:51.200     5 996 kbps      7 567 kbps      00:00:09.480    6 313 kbps      00:00:05.480    6 158 kbps      00:00:08.600    29 955 bytes    126 386 bytes   00:00:36.399
2               0:00:51.200     0:00:00.039     2 323 kbps      0 kbps          00:00:00.000    0 kbps          00:00:00.000    0 kbps          00:00:00.000    11 615 bytes    11 615 bytes    00:00:51.240
3               0:00:51.240     0:01:31.960     5 995 kbps      7 242 kbps      00:00:55.440    6 248 kbps      00:00:51.440    6 111 kbps      00:00:53.600    29 974 bytes    100 285 bytes   00:01:49.240
4               0:02:23.200     0:01:29.799     5 994 kbps      7 572 kbps      00:03:17.320    6 317 kbps      00:02:48.360    6 147 kbps      00:02:50.520    29 984 bytes    128 362 bytes   00:02:51.440
STREAM DIAGNOSTICS:
File            PID             Type            Codec           Language                Seconds                 Bitrate                 Bytes           Packets
----            ---             ----            -----           --------                --------------          --------------          -------------   -----
00009.M2TS      4113 (0x1011)   0x02            MPEG-2                                  51,120                  6 005                   38 372 775      209 370
00009.M2TS      4352 (0x1100)   0x81            AC3             rus (Russian)           51,120                  192                     1 229 568       8 005
00010.M2TS      4113 (0x1011)   0x02            MPEG-2                                  91,800                  6 005                   68 912 775      376 062
00010.M2TS      4352 (0x1100)   0x81            AC3             rus (Russian)           91,800                  192                     2 206 464       14 365
00011.M2TS      4113 (0x1011)   0x02            MPEG-2                                  89,640                  6 006                   67 292 775      367 206
00011.M2TS      4352 (0x1100)   0x81            AC3             rus (Russian)           89,640                  192                     2 150 400       14 000
QUICK SUMMARY:
Disc Title: Jackie Brown_1997
Disc Size: 40 752 539 972 bytes
Protection: AACS
BD-Java: No
Playlist: 00006.MPLS
Size: 191 410 176 bytes
Length: 0:03:53.000
Total Bitrate: 6,57 Mbps
Video: MPEG-2 Video / 5994 kbps / 576i / 25 fps / 4:3
Audio: Russian / Dolby Digital Audio / 2.0 / 48 kHz / 192 kbps / DN -4dB

Скриншоты

Скачать

Скачать торрент!

Как скачивать? · Что такое торрент? · Рейтинг и ограничения

Сайт не распространяет и не хранит электронные версии произведений, а лишь предоставляет доступ к создаваемому пользователями каталогу ссылок на торрент-файлы, которые содержат только списки хеш-сумм

[Профиль] [ЛС]
Показать сообщения:    
Ответить на тему

Текущее время: Сегодня 13:42

Часовой пояс: GMT + 4



Вы не можете начинать темы
Вы не можете отвечать на сообщения
Вы не можете редактировать свои сообщения
Вы не можете удалять свои сообщения
Вы не можете голосовать в опросах
Вы не можете прикреплять файлы к сообщениям
Вы не можете скачивать файлы