Паранойя / Paranoia (Роберт Лукетич / Robert Luketic) [2013, США, Франция, триллер, драма, BDRip 720p] Dub (iTunes Russia) + Sub Rus, Eng + Original Eng

Ответить на тему
 
Автор Сообщение

user ®

Стаж: 7 лет 7 месяцев

Сообщений: 20008

Пост Пост: #1 от 07-Дек-2013 22:30

[Цитировать]

Паранойя / Paranoia
«В войне двух королей, даже пешка может победить»
Страна: США, Франция
Студия: Relativity Media
Жанр: триллер, драма
Год выпуска: 2013
Продолжительность: 01:46:06-Перевод: Профессиональный (дублированный) iTunes Russia
Cубтитры: русские (MartinaG), английские
Оригинальная аудиодорожка: английский-Режиссер: Роберт Лукетич / Robert Luketic
В ролях: Лиам Хемсворт, Гари Олдман, Эмбер Хёрд, Харрисон Форд, Лукас Тилл, Эмбет Дэвидц, Джулиан МакМэхон, Джош Холлоуэй, Ричард Дрейфусс, Анджела Сарафян
Описание: Адам Кэссиди — типичный «белый воротничок», пытающийся преуспеть на должности молодого специалиста в крупной телекоммуникационной корпорации. После одной весьма дорогостоящей ошибки он сталкивается лицом к лицу с безжалостным президентом компании, который соглашается не увольнять провинившегося при одном условии: Адам должен шпионить за старым наставником своего босса…
Рип от CRiSC
Сэмпл: sendfile→, rusfolder→
Тип релиза: BDRip 720p
Контейнер: MKV
Видео: 1280 x 534 (2.397), x264, L4.1, 23.976fps, ~ 5000 kbps
Аудио#1: 48 kHz, DD 5.1 - 384 kbps |Дубляж, iTunes Russia|
Аудио#2: 48 kHz, DD 5.1 - 640 kbps |Оригинал|
Формат субтитров: softsub (SRT)

MediaInfo

Полное имя : Paranoia.2013.720p.BluRay.DD5.1.x264-CRiSC.Rus.Eng.mkv
Формат : Matroska
Версия формата : Version 4 / Version 2
Размер файла : 4,46 Гбайт
Продолжительность : 1 ч. 46 м.
Общий поток : 6022 Кбит/сек
Название фильма : Paranoia (2013) | Rip by CRiSC
Дата кодирования : UTC 2013-12-06 20:18:52
Программа кодирования : mkvmerge v6.5.0 ('Isn't she lovely') built on Oct 20 2013 12:50:05
Библиотека кодирования : libebml v1.3.0 + libmatroska v1.4.1
Видео
Идентификатор : 1
Формат : AVC
Формат/Информация : Advanced Video Codec
Профиль формата : High@L4.1
Параметр CABAC формата : Да
Параметр ReFrames формата : 12 кадров
Идентификатор кодека : V_MPEG4/ISO/AVC
Продолжительность : 1 ч. 46 м.
Битрейт : 5000 Кбит/сек
Ширина : 1280 пикселей
Высота : 534 пикселя
Соотношение сторон : 2,40:1
Режим частоты кадров : Постоянный
Частота кадров : 23,976 кадра/сек
Цветовое пространство : YUV
Субдискретизация насыщенности : 4:2:0
Битовая глубина : 8 бит
Тип развёртки : Прогрессивная
Бит/(Пиксели*Кадры) : 0.305
Размер потока : 3,62 Гбайт (81%)
Заголовок : Paranoia (2013) by Djex
Библиотека кодирования : x264 core 140 r2377kMod 1ca7bb9
Настройки программы : cabac=1 / ref=12 / deblock=1:-3:-3 / analyse=0x3:0x133 / me=tesa / subme=11 / psy=1 / fade_compensate=0.00 / psy_rd=1.00:0.00 / mixed_ref=1 / me_range=24 / chroma_me=1 / trellis=2 / 8x8dct=1 / cqm=0 / deadzone=21,11 / fast_pskip=0 / chroma_qp_offset=-2 / threads=12 / lookahead_threads=2 / sliced_threads=0 / nr=0 / decimate=0 / interlaced=0 / bluray_compat=0 / constrained_intra=0 / fgo=0 / bframes=9 / b_pyramid=2 / b_adapt=2 / b_bias=0 / direct=3 / weightb=1 / open_gop=0 / weightp=2 / keyint=250 / keyint_min=23 / scenecut=40 / intra_refresh=0 / rc_lookahead=40 / rc=2pass / mbtree=0 / bitrate=5000 / ratetol=1.0 / qcomp=0.80 / qpmin=0 / qpmax=69 / qpstep=4 / cplxblur=20.0 / qblur=0.5 / vbv_maxrate=50000 / vbv_bufsize=62500 / nal_hrd=none / filler=0 / ip_ratio=1.30 / pb_ratio=1.20 / aq=1:0.90
Язык : English
Default : Да
Forced : Нет
Основные цвета : BT.709
Характеристики трансфера : BT.709
Коэффициенты матрицы : BT.709
Аудио #1
Идентификатор : 2
Формат : AC-3
Формат/Информация : Audio Coding 3
Расширение режима : CM (complete main)
Параметр Endianness формата : Big
Идентификатор кодека : A_AC3
Продолжительность : 1 ч. 46 м.
Вид битрейта : Постоянный
Битрейт : 384 Кбит/сек
Каналы : 6 каналов
Расположение каналов : Front: L C R, Side: L R, LFE
Частота : 48,0 КГц
Битовая глубина : 16 бит
Метод сжатия : С потерями
Размер потока : 291 Мбайт (6%)
Заголовок : DD 5.1 - 384 kbps |Дубляж, iTunes Russia|
Язык : Russian
Default : Да
Forced : Нет
Аудио #2
Идентификатор : 3
Формат : AC-3
Формат/Информация : Audio Coding 3
Расширение режима : CM (complete main)
Параметр Endianness формата : Big
Идентификатор кодека : A_AC3
Продолжительность : 1 ч. 46 м.
Вид битрейта : Постоянный
Битрейт : 640 Кбит/сек
Каналы : 6 каналов
Расположение каналов : Front: L C R, Side: L R, LFE
Частота : 48,0 КГц
Битовая глубина : 16 бит
Метод сжатия : С потерями
Размер потока : 486 Мбайт (11%)
Заголовок : DD 5.1 - 640 kbps |Оригинал|
Язык : English
Default : Нет
Forced : Нет
Текст #1
Идентификатор : 4
Формат : UTF-8
Идентификатор кодека : S_TEXT/UTF8
Идентификатор кодека/Информация : UTF-8 Plain Text
Заголовок : MartinaG
Язык : Russian
Default : Нет
Forced : Нет
Текст #2
Идентификатор : 5
Формат : UTF-8
Идентификатор кодека : S_TEXT/UTF8
Идентификатор кодека/Информация : UTF-8 Plain Text
Язык : English
Default : Нет
Forced : Нет
Меню
00:00:00.000 : en:00:00:00.000
00:06:54.205 : en:00:06:54.205
00:10:31.840 : en:00:10:31.840
00:14:12.602 : en:00:14:12.602
00:17:02.396 : en:00:17:02.396
00:21:41.008 : en:00:21:41.008
00:26:29.922 : en:00:26:29.922
00:31:31.848 : en:00:31:31.848
00:36:47.580 : en:00:36:47.580
00:39:37.500 : en:00:39:37.500
00:46:08.933 : en:00:46:08.933
00:49:15.327 : en:00:49:15.327
00:54:37.900 : en:00:54:37.900
00:57:30.238 : en:00:57:30.238
00:59:16.511 : en:00:59:16.511
01:04:02.547 : en:01:04:02.547
01:06:58.431 : en:01:06:58.431
01:10:14.961 : en:01:10:14.961
01:19:23.759 : en:01:19:23.759
01:23:21.079 : en:01:23:21.079
01:27:37.502 : en:01:27:37.502
01:35:06.618 : en:01:35:06.618
01:37:53.367 : en:01:37:53.367
01:40:59.053 : en:01:40:59.053

Скриншоты


Скачать

Скачать торрент!

Как скачивать? · Что такое торрент? · Рейтинг и ограничения

Сайт не распространяет и не хранит электронные версии произведений, а лишь предоставляет доступ к создаваемому пользователями каталогу ссылок на торрент-файлы, которые содержат только списки хеш-сумм

[Профиль] [ЛС]
Показать сообщения:    
Ответить на тему

Текущее время: Сегодня 00:07

Часовой пояс: GMT + 4



Вы не можете начинать темы
Вы не можете отвечать на сообщения
Вы не можете редактировать свои сообщения
Вы не можете удалять свои сообщения
Вы не можете голосовать в опросах
Вы не можете прикреплять файлы к сообщениям
Вы не можете скачивать файлы