Одноклассники 2 / Grown Ups 2 (Деннис Дуган / Dennis Dugan) [2013, США, комедия, BDRip] Dub (Blu-ray CEE)

Ответить на тему
 
Автор Сообщение

user ®

Стаж: 7 лет 7 месяцев

Сообщений: 20008

Пост Пост: #1 от 07-Дек-2013 22:30

[Цитировать]

Одноклассники 2 / Grown Ups 2«They'll do anything for their families... except grow up»- Страна: США
Жанр: комедия
Год выпуска: 2013
Продолжительность: 01:40:58-Перевод: Профессиональный (Полное дублирование) [Blu-ray CEE]
Cубтитры: отсутствуют-Режиссер: Деннис Дуган / Dennis Dugan
В ролях: Адам Сэндлер (Lenny Feder), Кевин Джеймс (Eric Lamonsoff), Крис Рок (Kurt McKenzie), Дэвид Спейд (Marcus Higgins), Сальма Хайек (Roxanne Chase-Feder), Майя Рудольф (Deanne McKenzie), Мария Белло (Sally Lamonsoff), Ник Свардсон (Nick), Александр Людвиг (Braden), Колин Куинн (Dickie Bailey), Стив Бушеми (Wiley), Тэйлор Лотнер (Frat Boy Andy, в титрах не указан)-Описание: После того как Ленни Федер переезжает с семьей обратно в родной город, он и его друзья извлекут немало уроков, когда их дети окончат школу…-IMDB | КиноПоиск | Сэмпл-Качество видео: BDRip | исх. Grown.Ups.2.COMPLETE.BLURAY-LAZERS
Формат видео: AVI-Видео: 624x336 (1.86:1), 23.976 fps, XviD build 65 ~892 kbps avg, 0.18 bit/pixel
Аудио: 48 kHz, MPEG Layer 3, 2 ch, ~128.00 kbps avg | Профессиональный (Полное дублирование) [Blu-ray CEE]-

MediaInfo


General
Complete name : D:\Фильмы\Рипы\Grown_Ups_2_2013_BDRip_by_Fredd Kruger.avi
Format : AVI
Format/Info : Audio Video Interleave
File size : 744 MiB
Duration : 1h 40mn
Overall bit rate : 1 030 Kbps
Writing application : VirtualDubMod 1.5.10.2 (build 2540/release)
Writing library : VirtualDubMod build 2540/release
Video
ID : 0
Format : MPEG-4 Visual
Format profile : Advanced Simple@L5
Format settings, BVOP : 2
Format settings, QPel : No
Format settings, GMC : No warppoints
Format settings, Matrix : Custom
Codec ID : XVID
Codec ID/Hint : XviD
Duration : 1h 40mn
Bit rate : 893 Kbps
Width : 624 pixels
Height : 336 pixels
Display aspect ratio : 1.85:1
Frame rate : 23.976 fps
Color space : YUV
Chroma subsampling : 4:2:0
Bit depth : 8 bits
Scan type : Progressive
Compression mode : Lossy
Bits/(Pixel*Frame) : 0.178
Stream size : 645 MiB (87%)
Writing library : XviD 65
Audio
ID : 1
Format : MPEG Audio
Format version : Version 1
Format profile : Layer 3
Codec ID : 55
Codec ID/Hint : MP3
Duration : 1h 40mn
Bit rate mode : Constant
Bit rate : 128 Kbps
Channel(s) : 2 channels
Sampling rate : 48.0 KHz
Compression mode : Lossy
Stream size : 92.4 MiB (12%)
Alignment : Aligned on interleaves
Interleave, duration : 42 ms (1.00 video frame)
Interleave, preload duration : 504 ms
Writing library : L3.99r
Encoding settings : -m s -V 4 -q 0 -lowpass 17 -b 128

Скриншоты

Скачать

Скачать торрент!

Как скачивать? · Что такое торрент? · Рейтинг и ограничения

Сайт не распространяет и не хранит электронные версии произведений, а лишь предоставляет доступ к создаваемому пользователями каталогу ссылок на торрент-файлы, которые содержат только списки хеш-сумм

[Профиль] [ЛС]
Показать сообщения:    
Ответить на тему

Текущее время: Сегодня 03:13

Часовой пояс: GMT + 4



Вы не можете начинать темы
Вы не можете отвечать на сообщения
Вы не можете редактировать свои сообщения
Вы не можете удалять свои сообщения
Вы не можете голосовать в опросах
Вы не можете прикреплять файлы к сообщениям
Вы не можете скачивать файлы