Фотолаборатория / Darkroom (Бритт Напье / Britt Napier) [2013, США, триллер, WEB-DLRip] DVO + Original (Eng)

Ответить на тему
 
Автор Сообщение

user ®

Стаж: 7 лет 7 месяцев

Сообщений: 20008

Пост Пост: #1 от 07-Дек-2013 22:30

[Цитировать]

ФотолабораторияDarkroom- Страна: США
Жанр: триллер
Год выпуска: 2013
Продолжительность: 01:20:37-Перевод: Любительский (двухголосый)[den904 и DeadSno]
Оригинальная аудиодорожка: английский
Субтитры: нет
Режиссер: Бритт Напье / Britt Napier
В ролях: Aarin Teich, Джилл Пирс, Джеффри Арбо, Сара Ли Вэйд, Аллен Либерман, Стелла Кастнер, Джон О’Коннор, Jo Samon, Тимоти Хикс, Shannon Absher, Майкл Хэлпин, Эбигейл Ленц-Описание: Выжившая в ужасной автокатастрофе Мишель отправляется на новую работу, которую порекомедовали в реалибитационном центре, и становится заложницей трёх садистов-психопатов, решивших наказать девушку за её грехи...-
--Качество: WEB-DLRip
Контейнер: AVI
Видео: XviD, 720x384 (1.875), 1837 kbps, 23,976 fps, 0,277 bpp
Аудио №1: Russian: AC3 / 2.0 / 48 kHz / 192 kbps / 16 bit
Аудио №2: English: AC3 / 5.1 / 48 kHz / 384 kbps / 16 bit-

Media Info

General
Complete name : G:\Darkroom.2013.L.WEBDLRip_1400Mb.avi
Format : AVI
Format/Info : Audio Video Interleave
File size : 1.37 GiB
Duration : 1h 20mn
Overall bit rate : 2 428 Kbps
Writing application : VirtualDubMod 1.5.10.3 | www.virtualdub-fr.org || (build 2550/release)
Writing library : VirtualDubMod build 2550/release
Video
ID : 0
Format : MPEG-4 Visual
Format profile : Advanced Simple@L5
Format settings, BVOP : 1
Format settings, QPel : No
Format settings, GMC : No warppoints
Format settings, Matrix : Custom
Codec ID : XVID
Codec ID/Hint : XviD
Duration : 1h 20mn
Bit rate : 1 838 Kbps
Width : 720 pixels
Height : 384 pixels
Display aspect ratio : 1.875
Frame rate : 23.976 fps
Color space : YUV
Chroma subsampling : 4:2:0
Bit depth : 8 bits
Scan type : Progressive
Compression mode : Lossy
Bits/(Pixel*Frame) : 0.277
Stream size : 1.03 GiB (76%)
Writing library : XviD 1.2.1 (UTC 2008-12-04)
Audio #1
ID : 1
Format : AC-3
Format/Info : Audio Coding 3
Mode extension : CM (complete main)
Codec ID : 2000
Duration : 1h 20mn
Bit rate mode : Constant
Bit rate : 192 Kbps
Channel(s) : 2 channels
Channel positions : Front: L R
Sampling rate : 48.0 KHz
Bit depth : 16 bits
Compression mode : Lossy
Stream size : 111 MiB (8%)
Alignment : Split accross interleaves
Interleave, duration : 42 ms (1.00 video frame)
Interleave, preload duration : 500 ms
Audio #2
ID : 2
Format : AC-3
Format/Info : Audio Coding 3
Mode extension : CM (complete main)
Codec ID : 2000
Duration : 1h 20mn
Bit rate mode : Constant
Bit rate : 384 Kbps
Channel(s) : 6 channels
Channel positions : Front: L C R, Side: L R, LFE
Sampling rate : 48.0 KHz
Bit depth : 16 bits
Compression mode : Lossy
Stream size : 221 MiB (16%)
Alignment : Split accross interleaves
Interleave, duration : 42 ms (1.00 video frame)
Interleave, preload duration : 500 ms

Скриншот с названием фильма

Скриншоты

Скачать

Скачать торрент!

Как скачивать? · Что такое торрент? · Рейтинг и ограничения

Сайт не распространяет и не хранит электронные версии произведений, а лишь предоставляет доступ к создаваемому пользователями каталогу ссылок на торрент-файлы, которые содержат только списки хеш-сумм

[Профиль] [ЛС]
Показать сообщения:    
Ответить на тему

Текущее время: Сегодня 07:01

Часовой пояс: GMT + 4



Вы не можете начинать темы
Вы не можете отвечать на сообщения
Вы не можете редактировать свои сообщения
Вы не можете удалять свои сообщения
Вы не можете голосовать в опросах
Вы не можете прикреплять файлы к сообщениям
Вы не можете скачивать файлы