Невероятные приключения кота / Oggy et les cafards (Оливер Жан-Мари /Olivier Jean Marie) [2013, Комедия, семейный, DVDRip]

Ответить на тему
 
Автор Сообщение

user ®

Стаж: 13 лет

Сообщений: 15041

Пост Пост: #1 от 07-Дек-2013 15:45

[Цитировать]

Невероятные приключения кота / Oggy et les cafards
Страна: Франция
Жанр: Комедия, семейный
Продолжительность: 01:22:01
Год выпуска: 2013
Перевод: Не требуется
Русские субтитры: нет
Режиссёр: Оливер Жан-Мари /Olivier Jean Marie
Описание: Добродушный кот Огги любит поесть, поспать и помечтать о высоком. Но его вечно одолевают несносные соседи, отравляя его жизнь злыми шутками и приколами. Кот гоняется за ними с неослабевающим азартом, придумывает всё новые и новые хитроумные уловки, но увы… Покой ему только снится.
Семпл: http://multi-up.com/930155
Качество: DVDRip
Формат: AVI
Видео: 720x384 (1.88:1), 23.970 fps, DivX Codec 4.x, 2174 kbps avg, 0.33 bit/pixel
Аудио: 48 kHz, AC3 Dolby Digital, 2/0 (L,R) ch, 224 kbps
Субтитры: Отсутствуют

Подробные технические данные

Neveroyatnye.priklu4eniya.kota.1.37.avi Format : AVI Format/Info : Audio Video Interleave Format profile : OpenDML File size : 1.38 GiB Duration : 1h 22mn Overall bit rate : 2 406 Kbps Movie name : N Genre : C Writing application : Lavf52.93.0 Video #0 ID : 0 Format : MPEG-4 Visual Format profile : Simple@L1 Format settings, BVOP : No Format settings, QPel : No Format settings, GMC : No warppoints Format settings, Matrix : Default (H.263) Codec ID : DIVX Codec ID/Info : Project Mayo Codec ID/Hint : DivX 4 Duration : 1h 22mn Bit rate : 2 169 Kbps Width : 720 pixels Height : 384 pixels Display aspect ratio : 1.875 Frame rate : 23.976 fps Color space : YUV Chroma subsampling : 4:2:0 Bit depth : 8 bits Scan type : Progressive Compression mode : Lossy Bits/(Pixel*Frame) : 0.327 Stream size : 1.24 GiB (90%) Writing library : Lavc52.108.0 Audio #1 ID : 1 Format : AC-3 Format/Info : Audio Coding 3 Mode extension : CM (complete main) Codec ID : 2000 Duration : 1h 22mn Bit rate mode : Constant Bit rate : 224 Kbps Channel(s) : 2 channels Channel positions : Front: L R Sampling rate : 48.0 KHz Bit depth : 16 bits Compression mode : Lossy Stream size : 131 MiB (9%) Alignment : Aligned on interleaves Interleave, duration : 32 ms (0.77 video frame) Interleave, preload duration : 64 ms
Скачать

Скачать торрент! Невероятные приключения кота / Oggy et les cafards (Оливер Жан-Мари /Olivier Jean Marie) [2013, Комедия, семейный, DVDRip]

Как скачивать? · Что такое торрент? · Рейтинг и ограничения

Сайт не распространяет и не хранит электронные версии произведений, а лишь предоставляет доступ к создаваемому пользователями каталогу ссылок на торрент-файлы, которые содержат только списки хеш-сумм

[Профиль] [ЛС]
Показать сообщения:    
Ответить на тему

Текущее время: Сегодня 00:29

Часовой пояс: GMT + 4



Вы не можете начинать темы
Вы не можете отвечать на сообщения
Вы не можете редактировать свои сообщения
Вы не можете удалять свои сообщения
Вы не можете голосовать в опросах
Вы не можете прикреплять файлы к сообщениям
Вы не можете скачивать файлы