Злодей / Buraikan / The Scandalous Adventures of Buraikan (Масахиро Синода / Shinoda Masahiro) [1970, Япония, драма, DVDRip] + Sub Rus

Ответить на тему
 
Автор Сообщение

user ®

Стаж: 11 лет

Сообщений: 15151

Пост Пост: #1 от 07-Дек-2013 15:45

[Цитировать]

Злодей / Buraikan / The Scandalous Adventures of Buraikan
Страна: Япония
Жанр: драма
Год выпуска: 1970
Продолжительность: 01:43:16
Перевод: Субтитры (перевод - dmit (DM), редакция - miky_m)
Cубтитры: русские
Оригинальная аудиодорожка: японский
Режиссер: Масахиро Синода / Shinoda Masahiro
В ролях: Тацуя Накадаи, Тэцуро Танба, Сима Ивасита, Хамамура Дзюн, Одзава Сеити, Енэкура Масаканэ, Таити Кивако, Ватанабэ Фумио, Игава Хисаси
О фильме: Действие происходит в столице Японии Эдо эры Тэмпо. В 1834 г. энергичный представитель дома Мидзуно князь Тадакуни занял пост члена Совета старейшин (родзю). А в 1841 году он получает почти неограниченные полномочия правителя при новом сегуне Иэеси (1838-1853), активно проводя реформирование экономики страны, заодно стараясь укрепить моральные основы общества. Жесткие и непопулярные меры - закрытие театров, запрет азартных игр и публичных домов, ограничение на роскошь - приводят к недовольству и росту числа людей, оставшихся без заработка. На фоне этих событий на экране переплетаются судьбы нескольких человек, оказывающихся в силу закона маргиналами. Колоритные и неоднозначные персонажи (Наодзиро - несостоявшийся актер, из-за любви к гейше пытающийся убить мать; Сосюн Котияма - знаменитый мошенник и авантюрист, под маской священника вымогающий деньги, безрезультатно ищет справедливость; Канэкоити - потерявший смысл жизни самурай, убивающий за деньги; Усимацу - ремесленник, повинный в смерти жены, тщетно разыскивающий пропавшего сына) - объединяются по различным причинам в протесте против социальных запретов. Обреченный бунт, превращающийся в фарс, по-настоящему трагичен. Фильм захватывает не только хитросплетениями сюжета, но и своей многогранностью, демонстрируя противостояние полнокровной жажды жизни и сухости общественной морали. К тому же, как всегда, Синоду отличает изысканный визуальный ряд и отменная операторская работа. Ну, и актерский состав прекрасен.
Доп. информация: http://www.imdb.com/title/tt0065503/
Исходник: [url=http://***/forum/viewtopic.php?t=4591459]http://***/forum/viewtopic.php?t=4591459[/url]
Сэмпл: http://rusfolder.com/39076201
Качество видео: DVDRip
Формат видео: AVI
Видео: 688x288 (2.39:1), 23.976 fps, XviD build 73 ~1814 kbps avg, 0.38 bit/pixel
Аудио: AC3, 48 kHz, 1/0 (C) ch, ~192 kbps avg
Формат субтитров: softsub (SRT)

MediaInfo

Общее
Полное имя : E:\Фильмы\Buraikan.1970.DVDRip\Buraikan.1970.DVDRip.avi
Формат : AVI
Формат/Информация : Audio Video Interleave
Размер файла : 1,45 Гбайт
Продолжительность : 1 ч. 43 м.
Общий поток : 2016 Кбит/сек
Название фильма : The Scandalous Adventures of Buraikan (1970) DVDRip
Режиссёр : Shinoda Masahiro
Программа кодирования : VirtualDubMod 1.5.10.2 (build 2540/release)
Библиотека кодирования : VirtualDubMod build 2540/release
Правообладатель : Rip by Judas_X
Видео
Идентификатор : 0
Формат : MPEG-4 Visual
Профиль формата : Advanced Simple@L5
Параметр BVOP формата : 1
Параметр QPel формата : Нет
Параметр GMC формата : Без точки перехода
Параметр матрицы формата : Выборочная
Идентификатор кодека : XVID
Идентификатор кодека/Подсказка : XviD
Продолжительность : 1 ч. 43 м.
Битрейт : 1814 Кбит/сек
Ширина : 688 пикселей
Высота : 288 пикселей
Соотношение сторон : 2,40:1
Частота кадров : 23,976 кадра/сек
Цветовое пространство : YUV
Субдискретизация насыщенности : 4:2:0
Битовая глубина : 8 бит
Тип развёртки : Прогрессивная
Метод сжатия : С потерями
Бит/(Пиксели*Кадры) : 0.382
Размер потока : 1,31 Гбайт (90%)
Библиотека кодирования : XviD 73
Аудио
Идентификатор : 1
Формат : AC-3
Формат/Информация : Audio Coding 3
Расширение режима : CM (complete main)
Параметр Endianness формата : Big
Идентификатор кодека : 2000
Продолжительность : 1 ч. 43 м.
Вид битрейта : Постоянный
Битрейт : 192 Кбит/сек
Каналы : 1 канал
Расположение каналов : Front: C
Частота : 48,0 КГц
Битовая глубина : 16 бит
Метод сжатия : С потерями
Размер потока : 142 Мбайт (10%)
Выравнивание : Разделение по промежуткам
Продолжительность промежутка : 42 мс. (1,00 видеокадр)
Время предзагрузки промежутка : 500 мс.

Пример субтитров

17
00:02:46,666 --> 00:02:49,260
Покупайте маски.
18
00:02:49,569 --> 00:02:55,508
Самые разные маски. Тебе какую?
19
00:02:57,277 --> 00:03:00,405
- Вот эту. - Смерть?
20
00:03:02,448 --> 00:03:04,040
Примерь.
21
00:03:07,954 --> 00:03:10,218
- Хорошо? - Очень.
22
00:03:10,757 --> 00:03:14,420
Прямо вылитая Смерть.
23
00:03:31,177 --> 00:03:33,270
Они исчезли.
24
00:03:36,549 --> 00:03:40,451
Что случилось с афишами?
25
00:03:41,754 --> 00:03:46,350
- Украли?
- Инспектор по надзору конфисковал.
26
00:03:46,459 --> 00:03:51,897
В нашем представлении не хватало
верноподданности и почтительности.
27
00:03:51,998 --> 00:04:00,201
- Он велел переделать.
- Вот так история! - Да, дела идут плохо.
28
00:04:01,040 --> 00:04:06,706
Князь Мидзуно - глупый реформатор.
Он поступает неразумно.
29
00:04:07,247 --> 00:04:08,839
Стой!
30
00:04:10,049 --> 00:04:15,510
- За вход надо платить.
- Мне нужен хозяин труппы.
31
00:04:16,022 --> 00:04:23,155
- Хозяин? Зачем?
- Попрошусь к вам в труппу актером.
32
00:04:24,163 --> 00:04:26,859
Возьму себе псевдоним.
33
00:04:28,835 --> 00:04:33,534
Наовака Катаока. Как, нравится?
34
00:04:33,840 --> 00:04:38,140
Буду красоваться на афишах.
35
00:04:38,244 --> 00:04:44,240
Старик, и тебе помогу
получить роль в спектакле.
36
00:05:23,256 --> 00:05:27,352
На вашем лице - тень смерти.
37
00:05:28,261 --> 00:05:35,633
- Дурацкая шутка.
- Если не верите - забудьте.

Скриншоты



Скачать

Скачать торрент! Злодей / Buraikan / The Scandalous Adventures of Buraikan (Масахиро Синода / Shinoda Masahiro) [1970, Япония, драма, DVDRip] + Sub Rus

Как скачивать? · Что такое торрент? · Рейтинг и ограничения

Сайт не распространяет и не хранит электронные версии произведений, а лишь предоставляет доступ к создаваемому пользователями каталогу ссылок на торрент-файлы, которые содержат только списки хеш-сумм

[Профиль] [ЛС]
Показать сообщения:    
Ответить на тему

Текущее время: Сегодня 03:18

Часовой пояс: GMT + 4



Вы не можете начинать темы
Вы не можете отвечать на сообщения
Вы не можете редактировать свои сообщения
Вы не можете удалять свои сообщения
Вы не можете голосовать в опросах
Вы не можете прикреплять файлы к сообщениям
Вы не можете скачивать файлы