Близкие враги / Enemies Closer (Питер Хайамс / Peter Hyams) [2013, Канада, США, триллер, DVDRip] VO (Хихикающий доктор)

Ответить на тему
 
Автор Сообщение

user ®

Стаж: 7 лет 7 месяцев

Сообщений: 20008

Пост Пост: #1 от 07-Дек-2013 09:25

[Цитировать]

Близкие враги / Enemies Closer Страна: Канада, США
Жанр: триллер
Год выпуска: 2013
Продолжительность: 01:24:50
Перевод: Одноголосый закадровый Хихикающий доктор
Cубтитры: нет
Оригинальная аудиодорожка: нет
Режиссер:
Питер Хайамс / Peter Hyams
В ролях:
Жан-Клод Ван Дамм, Орландо Джонс, Том Эверетт Скотт, Линзи Коккер, Кристофер Ван Варенберг, Захари Бахаров, Атанас Сребрев, Мэтт Медрано, Йонас Токингтон, Христо Митцков, Владо Мажанаов, Регги Варис
Описание:
Двум заклятым врагам, столкнувшимся в лесу на американо-канадской границе, приходится объединиться в борьбе против наркокурьеров, желающих любой ценой вернуть свой потерянный груз.
Sempl
Качество видео: DVDRip
Формат видео: AVI
Видео: Xvid 640x352 23.976fps 1013kbps
Аудио: MPEG Audio Layer 3 44100Hz stereo 192kbps

MediaInfo

General
Complete name : F:\КИНО\Enemies.Closer.2013.Xixidok.avi
Format : AVI
Format/Info : Audio Video Interleave
File size : 738 MiB
Duration : 1h 24mn
Overall bit rate : 1 216 Kbps
Writing application : VirtualDubMod 1.5.10.3 (build 2550/release)
Writing library : VirtualDubMod build 2550/release
Video
ID : 0
Format : MPEG-4 Visual
Format profile : Advanced Simple@L5
Format settings, BVOP : 2
Format settings, QPel : No
Format settings, GMC : No warppoints
Format settings, Matrix : Default (H.263)
Muxing mode : Packed bitstream
Codec ID : XVID
Codec ID/Hint : XviD
Duration : 1h 24mn
Bit rate : 1 014 Kbps
Width : 640 pixels
Height : 352 pixels
Display aspect ratio : 16:9
Frame rate : 23.976 fps
Color space : YUV
Chroma subsampling : 4:2:0
Bit depth : 8 bits
Scan type : Progressive
Compression mode : Lossy
Bits/(Pixel*Frame) : 0.188
Stream size : 615 MiB (83%)
Writing library : XviD 64
Audio
ID : 1
Format : MPEG Audio
Format version : Version 1
Format profile : Layer 3
Codec ID : 55
Codec ID/Hint : MP3
Duration : 1h 24mn
Bit rate mode : Constant
Bit rate : 192 Kbps
Channel(s) : 2 channels
Sampling rate : 44.1 KHz
Compression mode : Lossy
Stream size : 117 MiB (16%)
Alignment : Split accross interleaves
Interleave, duration : 42 ms (1.00 video frame)
Interleave, preload duration : 500 ms

Скриншот c названием фильма

Скриншоты

Скачать

Скачать торрент!

Как скачивать? · Что такое торрент? · Рейтинг и ограничения

Сайт не распространяет и не хранит электронные версии произведений, а лишь предоставляет доступ к создаваемому пользователями каталогу ссылок на торрент-файлы, которые содержат только списки хеш-сумм

[Профиль] [ЛС]
Показать сообщения:    
Ответить на тему

Текущее время: Сегодня 00:06

Часовой пояс: GMT + 4



Вы не можете начинать темы
Вы не можете отвечать на сообщения
Вы не можете редактировать свои сообщения
Вы не можете удалять свои сообщения
Вы не можете голосовать в опросах
Вы не можете прикреплять файлы к сообщениям
Вы не можете скачивать файлы