Риддик / Riddick (Дэвид Туи / David Neil Twohy) [2013, США, Великобритания, фантастика, боевик, триллер, DVDRip-AVC] Dub (Line) + Sub Rus

Ответить на тему
 
Автор Сообщение

user ®

Стаж: 7 лет 7 месяцев

Сообщений: 20008

Пост Пост: #1 от 07-Дек-2013 09:25

[Цитировать]

Риддик / Riddick
Страна: США, Великобритания
Жанр: фантастика, боевик, триллер
Год выпуска: 2013
Продолжительность: 01:58:47
Перевод: Профессиональный (дублированный) Line
Cубтитры: русские
Оригинальная аудиодорожка: нет
Режиссер: Дэвид Туи / David Neil Twohy
В ролях: Вин Дизель / Vin Diesel (Riddick), Хорди Молья / Jordi Molla (Santana), Мэтью Нэйбл / Matthew Nable (Boss Johns), Кэти Сакхофф / Katee Sackhoff (Dahl), Дэйв Батиста / Dave Bautista (Diaz), Букем Вудбайн / Bokeem Woodbine (Moss), Рауль Трухильо / Raoul Trujillo (Lockspur), Конрад Пла / Conrad Pla (Vargas)
Описание: Преданный своими и брошенный умирать на пустынной планете, Риддик сражается с хищниками за жизнь и становится сильнее и опаснее себя прежнего. Открывшие на него охоту галактические наемники оказываются пешками в грандиозном плане отмщения. С врагами, возникающими на его пути тогда, когда это нужно самому Риддику, он начинает поход во имя мести, чтобы в конечном счете вернуться на родную Фурию и спасти ее от уничтожения.

Доп. информация: Производство фильма оказалось под угрозой срыва, когда была задержка в финансировании. В итоге Вин Дизель взял на себя финансирование фильма до тех пор, пока не разрешилась проблема с банковской ссудой.
Сэмпл: http://sendfile.su/906303
Качество видео: DVDRip-AVC
Формат видео: MKV
Видео: MPEG4, 700 Кбит/сек, 720х304 (2,35:1), 23,976 кадра/сек
Аудио: AC3, 160 Кбит/сек, 2 канала, 48,0 КГц
Формат субтитров: softsub (SRT)

MediaInfo

Формат : Matroska
Версия формата : Version 4 / Version 2
Размер файла : 726 Мбайт
Продолжительность : 1 ч. 58 м.
Общий поток : 855 Кбит/сек
Дата кодирования : UTC 2013-12-06 19:05:27
Программа кодирования : mkvmerge v6.1.0 ('Old Devil') built on Mar 2 2013 14:32:37
Библиотека кодирования : libebml v1.3.0 + libmatroska v1.4.0
Видео
Идентификатор : 1
Формат : AVC
Формат/Информация : Advanced Video Codec
Профиль формата : High@L3.0
Параметр CABAC формата : Да
Параметр ReFrames формата : 4 кадра
Идентификатор кодека : V_MPEG4/ISO/AVC
Продолжительность : 1 ч. 58 м.
Битрейт : 700 Кбит/сек
Ширина : 720 пикселей
Высота : 304 пикселя
Соотношение сторон : 2,35:1
Режим частоты кадров : Постоянный
Частота кадров : 23,976 кадра/сек
Цветовое пространство : YUV
Субдискретизация насыщенности : 4:2:0
Битовая глубина : 8 бит
Тип развёртки : Прогрессивная
Бит/(Пиксели*Кадры) : 0.133
Размер потока : 576 Мбайт (79%)
Библиотека кодирования : x264 core 128 r2 198a7ea
Настройки программы : cabac=1 / ref=2 / deblock=1:0:0 / analyse=0x3:0x113 / me=hex / subme=6 / psy=1 / psy_rd=1.00:0.00 / mixed_ref=1 / me_range=16 / chroma_me=1 / trellis=1 / 8x8dct=1 / cqm=0 / deadzone=21,11 / fast_pskip=1 / chroma_qp_offset=-2 / threads=18 / lookahead_threads=3 / sliced_threads=0 / nr=0 / decimate=1 / interlaced=0 / bluray_compat=0 / constrained_intra=0 / bframes=3 / b_pyramid=2 / b_adapt=1 / b_bias=0 / direct=1 / weightb=1 / open_gop=0 / weightp=1 / keyint=30 / keyint_min=3 / scenecut=40 / intra_refresh=0 / rc_lookahead=30 / rc=2pass / mbtree=1 / bitrate=700 / ratetol=1.0 / qcomp=0.60 / qpmin=0 / qpmax=69 / qpstep=4 / cplxblur=20.0 / qblur=0.5 / vbv_maxrate=700 / vbv_bufsize=1000 / nal_hrd=none / ip_ratio=1.40 / aq=1:1.00
Default : Да
Forced : Нет
Аудио
Идентификатор : 2
Формат : AC-3
Формат/Информация : Audio Coding 3
Расширение режима : CM (complete main)
Параметр Endianness формата : Big
Идентификатор кодека : A_AC3
Продолжительность : 1 ч. 58 м.
Вид битрейта : Постоянный
Битрейт : 160 Кбит/сек
Каналы : 2 канала
Расположение каналов : Front: L R
Частота : 48,0 КГц
Битовая глубина : 16 бит
Метод сжатия : С потерями
Задержка видео : 24 мс.
Размер потока : 136 Мбайт (19%)
Default : Да
Forced : Нет

Скриншот c названием фильма

Скриншоты

Скачать

Скачать торрент!

Как скачивать? · Что такое торрент? · Рейтинг и ограничения

Сайт не распространяет и не хранит электронные версии произведений, а лишь предоставляет доступ к создаваемому пользователями каталогу ссылок на торрент-файлы, которые содержат только списки хеш-сумм

[Профиль] [ЛС]
Показать сообщения:    
Ответить на тему

Текущее время: Сегодня 19:22

Часовой пояс: GMT + 4



Вы не можете начинать темы
Вы не можете отвечать на сообщения
Вы не можете редактировать свои сообщения
Вы не можете удалять свои сообщения
Вы не можете голосовать в опросах
Вы не можете прикреплять файлы к сообщениям
Вы не можете скачивать файлы