Влюбиться до смерти / The Necessary Death of Charlie Countryman (Фредрик Бонд / Fredrik Bond) [2013, Румыния, США, боевик, триллер, драма, WEB-DLRip] DVO

Ответить на тему
 
Автор Сообщение

user ®

Стаж: 7 лет 7 месяцев

Сообщений: 20008

Пост Пост: #1 от 07-Дек-2013 00:30

[Цитировать]

Влюбиться до смертиThe Necessary Death of Charlie Countryman- Страна: Румыния, США
Жанр: боевик, триллер, драма, мелодрама, комедия
Год выпуска: 2013
Продолжительность: 01:43:34-Перевод: Любительский (двухголосый) [Студия "Paradox"]
Субтитры: нет
Режиссер: Фредрик Бонд / Fredrik Bond
В ролях: Шайа ЛаБаф, Эван Рэйчел Вуд, Мадс Миккельсен, Тиль Швайгер, Руперт Гринт, Джеймс Бакли, Ион Карамитру, Винсент Д’Онофрио, Мелисса Лео, Джон Хёрт, Андрей Финти, Ванесса Кирби-Описание: Избитый и израненный Чарли Кантримен подвешен вниз головой в центре Бухареста. Еще секунда - и в его сердце вонзится пуля, и жизнь молодого американского туриста оборвется.
А ведь еще пару недель назад ничто не предвещало такого финала. Работа Чарли была скучной, но безопасной, а в личной жизни его лучшими друзьями были галлюциногенные вещества. И вдруг грянул гром - в наркотическом видении ему явилась покойная мама...-


MPAA: R - Лицам до 17 лет обязательно присутствие взрослого-

Доп. Информация

Сценарий: Мэтт Дрэйк / Matt Drake
Продюсер: Рон Йеркса / Ron Yerxa, Альберт Бергер / Albert Berger, Крэйг Дж. Флорес / Craig J. Flores, Уильям Хорберг / William Horberg, Марк Бакунас / Mark Bakunas
Оператор: Роман Васьянов
Композитор: Кристоф Бек / Christophe Beck
Сборы в США: $11 650
Мировая премьера: 21 января 2013
-Качество: WEB-DLRip
Контейнер: AVI
Видео: XviD, 720x400 (16:9), 1624 kbps, 23,976 fps, 0,235 bpp
Аудио: AC3 / 5.1 / 48 kHz / 384 kbps / 16 bit-

Знаете ли Вы, что...

  • Когда Чарли Кантримен (Шайа ЛаБаф) едет в мотель «Марко Поло», водитель такси в шутку называет его Робертом Редфордом. Намного позже, в эпизоде в предрассветном Бухаресте - после неприятностей в ночном клубе, герой Руперта Гринта спрашивает Чарли не попал ли он в ситуацию, похожую на события фильма «Три дня Кондора» (1975). Дело в том, что именно Роберт Редфорд исполнил главную роль в этом фильме. Более того, до «Влюбиться до смерти» Шайа ЛаБаф снялся в триллере «Грязные игры» (2012), где в качестве режиссера и главного героя выступил тот же самый Роберт Редфорд.

Media Info

Общее
Полное имя : G:\Charli.Cantrimen.2013_L2.WEB-DLRip_1.45Gb.avi
Формат : AVI
Формат/Информация : Audio Video Interleave
Размер файла : 1,46 Гбайт
Продолжительность : 1 ч. 43 м.
Общий поток : 2018 Кбит/сек
Программа кодирования : VirtualDubMod 1.5.10.2 (build 2542/release)
Библиотека кодирования : VirtualDubMod build 2542/release
Видео
Идентификатор : 0
Формат : MPEG-4 Visual
Профиль формата : Advanced Simple@L5
Параметр BVOP формата : 1
Параметр QPel формата : Нет
Параметр GMC формата : Без точки перехода
Параметр матрицы формата : Default (MPEG)
Идентификатор кодека : XVID
Идентификатор кодека/Подсказка : XviD
Продолжительность : 1 ч. 43 м.
Битрейт : 1625 Кбит/сек
Ширина : 720 пикселей
Высота : 400 пикселей
Соотношение сторон : 16:9
Частота кадров : 23,976 кадра/сек
Цветовое пространство : YUV
Субдискретизация насыщенности : 4:2:0
Битовая глубина : 8 бит
Тип развёртки : Прогрессивная
Метод сжатия : С потерями
Бит/(Пиксели*Кадры) : 0.235
Размер потока : 1,18 Гбайт (81%)
Библиотека кодирования : XviD 1.2.1 (UTC 2008-12-04)
Аудио
Идентификатор : 1
Формат : AC-3
Формат/Информация : Audio Coding 3
Расширение режима : CM (complete main)
Параметр Endianness формата : Big
Идентификатор кодека : 2000
Продолжительность : 1 ч. 43 м.
Вид битрейта : Постоянный
Битрейт : 384 Кбит/сек
Каналы : 6 каналов
Расположение каналов : Front: L C R, Side: L R, LFE
Частота : 48,0 КГц
Битовая глубина : 16 бит
Метод сжатия : С потерями
Размер потока : 284 Мбайт (19%)
Выравнивание : Разделение по промежуткам
Продолжительность промежутка : 42 мс. (1,00 видеокадр)
Время предзагрузки промежутка : 500 мс.

Скриншот с названием фильма

Скриншоты

Скачать

Скачать торрент!

Как скачивать? · Что такое торрент? · Рейтинг и ограничения

Сайт не распространяет и не хранит электронные версии произведений, а лишь предоставляет доступ к создаваемому пользователями каталогу ссылок на торрент-файлы, которые содержат только списки хеш-сумм

[Профиль] [ЛС]
Показать сообщения:    
Ответить на тему

Текущее время: Сегодня 23:48

Часовой пояс: GMT + 4



Вы не можете начинать темы
Вы не можете отвечать на сообщения
Вы не можете редактировать свои сообщения
Вы не можете удалять свои сообщения
Вы не можете голосовать в опросах
Вы не можете прикреплять файлы к сообщениям
Вы не можете скачивать файлы