Короли лета / The Kings of Summer (Джордан Вогт-Робертс / Jordan Vogt-Roberts) [2013, США, драма, комедия, HDRip-AVC] AVO (Д. Есарев) + Original (Eng) + Subs (Rus, Eng)

Ответить на тему
 
Автор Сообщение

user ®

Стаж: 7 лет 7 месяцев

Сообщений: 20008

Пост Пост: #1 от 07-Дек-2013 00:30

[Цитировать]

Короли летаThe Kings of Summer«Наша жизнь - наши правила»- Страна: США
Жанр: драма, комедия
Год выпуска: 2013
Продолжительность: 01:35:41-Перевод: Авторский (одноголосый закадровый) Д. Есарев

Оригинальная аудиодорожка: английский
Субтитры: русские (Russian), английские (English), английские (English(SDH)
Режиссер: Джордан Вогт-Робертс / Jordan Vogt-Roberts
В ролях: Ник Дж. Робинсон, Гэбриел Бассо, Мойзес Ариас, Ник Офферман, Эрин Мориарти, Крэйг Каковски, Уильям Сонни, Нэйтан Кийес, Кристоффер Картер, Меган Маллалли, Присцилла Качук, Марк Ивэн Джексон-Описание: Трое друзей - подростки Джо, Патрик, а также эксцентричный и непредсказуемый Биаджо - решают сбежать из родного дома в лес, чтобы начать жизнь, не зависимую от родительского контроля. Построив самодельное жильё, ребята наконец-то ощущают себя полноправными хозяевами собственной судьбы. Так начинается их идеальное лето...-


MPAA: R - Лицам до 17 лет обязательно присутствие взрослого-

Доп. Информация

Сценарий: Крис Галлетта / Chris Galletta
Продюсер: Питер Сараф / Peter Saraf, Тайлер Дэвидсон / Tyler Davidson, Джон Ходжес / John Hodges, Эндрю Брикман / Andrew Brickman, Джордан Вогт-Робертс / Jordan Vogt-Roberts
Оператор: Росс Ридж / Ross Riege
Композитор: Райан Миллер / Ryan Miller
Сборы в США: $1 315 500
Сборы в России: $4 252
Мировая премьера: 19 января 2013
-Качество: HDRip-AVC (Исходник BDRip 720p)
Контейнер: MKV
Видео: AVC, 1024x428 (2.40:1), 1412 kbps, 23,976 fps, 0,134 bpp
Аудио №1: русский / AC3 / 5.1 / 48 kHz / 384 kbps / 16 bit ||
Аудио №2: английский / AC3 / 5.1 / 48 kHz / 384 kbps / 16 bit
Формат субтитров: softsub (SRT)-

Знаете ли Вы, что...

  • Сценарий Криса Галлетты был в «Черном списке» (ежегодный список лучших сценариев Голливуда, не получивших экранизации) в 2009-м году. Среди других сценариев из этого списка были: «Социальная сеть» (2010), «Совсем не бабник» (2011) и «Любит / Не любит» (2011).
  • В местных телевизионных новостях сообщают, что у Джо коричневые волосы и голубые глаза. На самом деле у Джо карие глаза.

Media Info

Общее
Уникальный идентификатор : 222092529262419769396730852640727300092 (0xA715771AD4139BC7A01F0FADA204F7FC)
Полное имя : G:\The.Kings.of.Summer.2013.HDRip-AVC.mkv
Формат : Matroska
Версия формата : Version 2
Размер файла : 1,45 Гбайт
Продолжительность : 1 ч. 35 м.
Общий поток : 2163 Кбит/сек
Дата кодирования : UTC 2013-12-06 18:42:04
Программа кодирования : mkvmerge v5.8.0 ('No Sleep / Pillow') built on Sep 2 2012 15:37:04
Библиотека кодирования : libebml v1.2.3 + libmatroska v1.3.0
Видео
Идентификатор : 1
Формат : AVC
Формат/Информация : Advanced Video Codec
Профиль формата : High@L4.1
Параметр CABAC формата : Да
Параметр ReFrames формата : 12 кадров
Идентификатор кодека : V_MPEG4/ISO/AVC
Продолжительность : 1 ч. 35 м.
Битрейт : 1412 Кбит/сек
Ширина : 1024 пикселя
Высота : 428 пикселей
Соотношение сторон : 2,40:1
Режим частоты кадров : Постоянный
Частота кадров : 23,976 кадра/сек
Цветовое пространство : YUV
Субдискретизация насыщенности : 4:2:0
Битовая глубина : 8 бит
Тип развёртки : Прогрессивная
Бит/(Пиксели*Кадры) : 0.134
Размер потока : 925 Мбайт (62%)
Библиотека кодирования : x264 core 138 r2358 9e941d1
Настройки программы : cabac=1 / ref=12 / deblock=1:-2:-2 / analyse=0x3:0x113 / me=umh / subme=9 / psy=1 / psy_rd=1.00:0.15 / mixed_ref=1 / me_range=36 / chroma_me=1 / trellis=2 / 8x8dct=1 / cqm=0 / deadzone=21,11 / fast_pskip=1 / chroma_qp_offset=-3 / threads=12 / lookahead_threads=3 / sliced_threads=0 / nr=0 / decimate=1 / interlaced=0 / bluray_compat=0 / constrained_intra=0 / bframes=12 / b_pyramid=2 / b_adapt=2 / b_bias=0 / direct=3 / weightb=1 / open_gop=0 / weightp=2 / keyint=250 / keyint_min=24 / scenecut=40 / intra_refresh=0 / rc_lookahead=40 / rc=2pass / mbtree=0 / bitrate=1412 / ratetol=1.0 / qcomp=0.60 / qpmin=0 / qpmax=69 / qpstep=4 / cplxblur=20.0 / qblur=0.5 / vbv_maxrate=50000 / vbv_bufsize=62500 / nal_hrd=none / ip_ratio=1.40 / pb_ratio=1.30 / aq=2:1.00
Язык : English
Default : Да
Forced : Нет
Аудио #1
Идентификатор : 2
Формат : AC-3
Формат/Информация : Audio Coding 3
Расширение режима : CM (complete main)
Параметр Endianness формата : Big
Идентификатор кодека : A_AC3
Продолжительность : 1 ч. 35 м.
Вид битрейта : Постоянный
Битрейт : 384 Кбит/сек
Каналы : 6 каналов
Расположение каналов : Front: L C R, Side: L R, LFE
Частота : 48,0 КГц
Битовая глубина : 16 бит
Метод сжатия : С потерями
Размер потока : 263 Мбайт (18%)
Заголовок : Одноголосый закадровый, Д. Есарев
Язык : Russian
Default : Да
Forced : Нет
Аудио #2
Идентификатор : 3
Формат : AC-3
Формат/Информация : Audio Coding 3
Расширение режима : CM (complete main)
Параметр Endianness формата : Big
Идентификатор кодека : A_AC3
Продолжительность : 1 ч. 35 м.
Вид битрейта : Постоянный
Битрейт : 384 Кбит/сек
Каналы : 6 каналов
Расположение каналов : Front: L C R, Side: L R, LFE
Частота : 48,0 КГц
Битовая глубина : 16 бит
Метод сжатия : С потерями
Размер потока : 263 Мбайт (18%)
Заголовок : English
Язык : English
Default : Нет
Forced : Нет
Текст #1
Идентификатор : 4
Формат : UTF-8
Идентификатор кодека : S_TEXT/UTF8
Идентификатор кодека/Информация : UTF-8 Plain Text
Заголовок : Russian
Язык : Russian
Default : Нет
Forced : Нет
Текст #2
Идентификатор : 5
Формат : UTF-8
Идентификатор кодека : S_TEXT/UTF8
Идентификатор кодека/Информация : UTF-8 Plain Text
Заголовок : English
Язык : English
Default : Нет
Forced : Нет
Текст #3
Идентификатор : 6
Формат : UTF-8
Идентификатор кодека : S_TEXT/UTF8
Идентификатор кодека/Информация : UTF-8 Plain Text
Заголовок : English(SDH)
Язык : English
Default : Нет
Forced : Нет

х264

x264 [info]: frame I:1405 Avg QP:20.50 size: 61944
x264 [info]: frame P:26928 Avg QP:22.96 size: 15011
x264 [info]: frame B:107889 Avg QP:24.59 size: 4736
x264 [info]: consecutive B-frames: 2.3% 1.9% 6.0% 11.4% 16.3% 42.8% 6.9% 4.2% 2.9% 4.1% 0.6% 0.3% 0.3%
x264 [info]: mb I I16..4: 7.3% 79.0% 13.7%
x264 [info]: mb P I16..4: 1.5% 8.9% 0.7% P16..4: 44.0% 20.8% 11.1% 0.0% 0.0% skip:12.8%
x264 [info]: mb B I16..4: 0.1% 0.4% 0.0% B16..8: 39.2% 6.6% 1.8% direct: 4.4% skip:47.5% L0:43.4% L1:51.0% BI: 5.6%
x264 [info]: 8x8 transform intra:79.9% inter:64.1%
x264 [info]: direct mvs spatial:98.0% temporal:2.0%
x264 [info]: coded y,uvDC,uvAC intra: 85.2% 69.8% 34.5% inter: 18.9% 15.7% 0.5%
x264 [info]: i16 v,h,dc,p: 30% 20% 12% 38%
x264 [info]: i8 v,h,dc,ddl,ddr,vr,hd,vl,hu: 9% 7% 7% 10% 15% 14% 13% 12% 12%
x264 [info]: i4 v,h,dc,ddl,ddr,vr,hd,vl,hu: 11% 7% 3% 10% 15% 15% 14% 12% 13%
x264 [info]: i8c dc,h,v,p: 40% 25% 20% 15%
x264 [info]: Weighted P-Frames: Y:5.5% UV:3.7%
x264 [info]: ref P L0: 45.9% 13.1% 18.5% 5.3% 5.0% 3.1% 3.0% 1.4% 1.5% 1.0% 1.1% 0.9% 0.2% 0.0%
x264 [info]: ref B L0: 70.7% 12.6% 6.0% 3.2% 2.2% 1.8% 1.4% 0.8% 0.7% 0.4% 0.2%
x264 [info]: ref B L1: 91.7% 8.3%
x264 [info]: kb/s:1411.25

Скриншот с названием фильма

Скриншоты

Скачать

Скачать торрент!

Как скачивать? · Что такое торрент? · Рейтинг и ограничения

Сайт не распространяет и не хранит электронные версии произведений, а лишь предоставляет доступ к создаваемому пользователями каталогу ссылок на торрент-файлы, которые содержат только списки хеш-сумм

[Профиль] [ЛС]
Показать сообщения:    
Ответить на тему

Текущее время: Сегодня 05:57

Часовой пояс: GMT + 4



Вы не можете начинать темы
Вы не можете отвечать на сообщения
Вы не можете редактировать свои сообщения
Вы не можете удалять свои сообщения
Вы не можете голосовать в опросах
Вы не можете прикреплять файлы к сообщениям
Вы не можете скачивать файлы