Седьмой / Си Джей 7 / Cheung Gong 7 hou / CJ7 (Стивен Чоу / Stephen Chow) [2008, Гонконг, фэнтези, комедия, драма, семейный, BDRip] MVO (1 канал)

Ответить на тему
 
Автор Сообщение

user ®

Стаж: 11 лет

Сообщений: 15151

Пост Пост: #1 от 06-Дек-2013 09:25

[Цитировать]

Седьмой / Си Джей 7 / Cheung Gong 7 hou / CJ7
Страна: Гонконг
Студия: Columbia Pictures Film Production Asia, Beijing Film Studio, China Film Group
Жанр: фэнтези, комедия, драма, семейный
Год выпуска: 2008
Продолжительность: 01:28:21
Перевод: Профессиональный (многоголосый закадровый) 1 канал
Cубтитры: нет
Оригинальная аудиодорожка: нет
Режиссер: Стивен Чоу / Stephen Chow
В ролях: Стивен Чоу, Мин Хун Фанг, Лам Чи Чунг, Джиао Ксу, Китти Чжан Юки
Описание: Дики и его отец живут в полуразвалившемся доме, где единственное развлечение - это ловля тараканов, а самый лакомый деликатес - подгнившие яблоки. Отец работает на стройке, пытаясь обеспечить Дики самое лучшее образование. Бедность преследует Дики насмешками соучеников, презрением некоторых из учителей, вечно дырявой обувью, которую отец Дики находит на свалке...
Но однажды к ним в дом попадает забавный и непонятный предмет, похожий на мячик, который оказывается инопланетным существом, способным менять форму и творить магию... И с этого момента жизнь Дики круто меняется, сталкивая его с непредвиденными сложностями и казусными ситуациями...

IMDB
Качество видео: BDRip
Формат видео: AVI
Видео: Xvid 720x304 (2.35:1)) 23.976fps Bit rate 2098Kbps b/p 0.400
Аудио: AC3 48.0 KHz 2ch. 224kbps

MediaInfo

Общее
Полное имя : E:\torrent\Sed'moi.2005.BDRip_1.kanal.avi
Формат : AVI
Формат/Информация : Audio Video Interleave
Размер файла : 1,44 Гбайт
Продолжительность : 1 ч. 28 м.
Общий поток : 2331 Кбит/сек
Библиотека кодирования : VirtualDub build 32842/release
Видео
Идентификатор : 0
Формат : MPEG-4 Visual
Профиль формата : Advanced Simple@L5
Параметр BVOP формата : 2
Параметр QPel формата : Нет
Параметр GMC формата : Без точки перехода
Параметр матрицы формата : Default (H.263)
Идентификатор кодека : XVID
Идентификатор кодека/Подсказка : XviD
Продолжительность : 1 ч. 28 м.
Битрейт : 2098 Кбит/сек
Ширина : 720 пикселей
Высота : 304 пикселя
Соотношение сторон : 2,35:1
Частота кадров : 23,976 кадра/сек
Цветовое пространство : YUV
Субдискретизация насыщенности : 4:2:0
Битовая глубина : 8 бит
Тип развёртки : Прогрессивная
Метод сжатия : С потерями
Бит/(Пиксели*Кадры) : 0.400
Размер потока : 1,29 Гбайт (90%)
Библиотека кодирования : XviD 1.2.1 (UTC 2008-12-04)
Аудио
Идентификатор : 1
Формат : AC-3
Формат/Информация : Audio Coding 3
Расширение режима : CM (complete main)
Параметр Endianness формата : Big
Идентификатор кодека : 2000
Продолжительность : 1 ч. 28 м.
Вид битрейта : Постоянный
Битрейт : 224 Кбит/сек
Каналы : 2 канала
Расположение каналов : Front: L R
Частота : 48,0 КГц
Битовая глубина : 16 бит
Метод сжатия : С потерями
Размер потока : 142 Мбайт (10%)
Выравнивание : Соединение по промежуткам
Продолжительность промежутка : 42 мс. (1,00 видеокадр)
Время предзагрузки промежутка : 512 мс.

Скриншот c названием фильма

Скриншоты

Скачать

Скачать торрент! Седьмой / Си Джей 7 / Cheung Gong 7 hou / CJ7 (Стивен Чоу / Stephen Chow) [2008, Гонконг, фэнтези, комедия, драма, семейный, BDRip] MVO (1 канал)

Как скачивать? · Что такое торрент? · Рейтинг и ограничения

Сайт не распространяет и не хранит электронные версии произведений, а лишь предоставляет доступ к создаваемому пользователями каталогу ссылок на торрент-файлы, которые содержат только списки хеш-сумм

[Профиль] [ЛС]
Показать сообщения:    
Ответить на тему

Текущее время: Сегодня 20:36

Часовой пояс: GMT + 4



Вы не можете начинать темы
Вы не можете отвечать на сообщения
Вы не можете редактировать свои сообщения
Вы не можете удалять свои сообщения
Вы не можете голосовать в опросах
Вы не можете прикреплять файлы к сообщениям
Вы не можете скачивать файлы