Последний рубеж / Homefront (Гэри Фледер / Gary Fleder) [2013, США, боевик, криминал, CamRip] Dub

Ответить на тему
 
Автор Сообщение

user ®

Стаж: 7 лет 7 месяцев

Сообщений: 20008

Пост Пост: #1 от 06-Дек-2013 09:25

[Цитировать]

Последний рубеж / Homefront Год выпуска: 2013
Страна: США / Homefront Productions, Millennium Films, Nu-Image Films
Жанр: боевик, криминал
Продолжительность: 01:30:32
Перевод: Профессиональный (полное дублирование)
Субтитры: нет
Оригинальная аудиодорожка: нет
Режиссер: Гэри Фледер / Gary Fleder
В ролях:
Джейсон Стэйтем, Джеймс Франко, Изабела Видович, Вайнона Райдер, Кейт Босворт, Клэнси Браун, Рашель Лефевр, Омар Бенсон Миллер, Маркус Хестер,
Фрэнк Грилло и др.
Описание:
Фил Брокер — бывший агент из отдела борьбы с наркотиками. Фил переезжает в небольшой город вместе с семьей в надежде забыть прошлое. Но он узнает, что город только со стороны кажется тихим и спокойным местом, на самом деле он кишит насилием, наркотиками, а всем этим заправляет злодей по кличке Аллигатор…
http://multi-up.com/929673
Качество: CamRip
Формат: AVI
Видео: XviD, 704x256 (2,750), 25,000 кадров/сек, 963 Кбит/сек
Аудио: AC3, 44,1 КГц, 2 канала, 192 Кбит/сек

MI

Формат : AVI
Формат/Информация : Audio Video Interleave
Размер файла : 754 Мбайт
Продолжительность : 1 ч. 30 м.
Общий поток : 1164 Кбит/сек
Тема : Homefront (2013) CAMRip
Библиотека кодирования : VirtualDub build 35491/release
Видео
Идентификатор : 0
Формат : MPEG-4 Visual
Профиль формата : Advanced Simple@L5
Параметр BVOP формата : 2
Параметр QPel формата : Нет
Параметр GMC формата : Без точки перехода
Параметр матрицы формата : Default (MPEG)
Идентификатор кодека : XVID
Идентификатор кодека/Подсказка : XviD
Продолжительность : 1 ч. 30 м.
Битрейт : 963 Кбит/сек
Ширина : 704 пикселя
Высота : 256 пикселей
Соотношение сторон : 2,750
Частота кадров : 25,000 кадров/сек
Цветовое пространство : YUV
Субдискретизация насыщенности : 4:2:0
Битовая глубина : 8 бит
Тип развёртки : Прогрессивная
Метод сжатия : С потерями
Бит/(Пиксели*Кадры) : 0.214
Размер потока : 623 Мбайт (83%)
Библиотека кодирования : XviD 64
Аудио
Идентификатор : 1
Формат : AC-3
Формат/Информация : Audio Coding 3
Расширение режима : CM (complete main)
Параметр Endianness формата : Big
Идентификатор кодека : 2000
Продолжительность : 1 ч. 30 м.
Вид битрейта : Постоянный
Битрейт : 192 Кбит/сек
Каналы : 2 канала
Расположение каналов : Front: L R
Частота : 44,1 КГц
Битовая глубина : 16 бит
Метод сжатия : С потерями
Задержка видео : 468 мс.
Размер потока : 124 Мбайт (16%)
Выравнивание : Разделение по промежуткам
Продолжительность промежутка : 40 мс. (1,00 видеокадр)
Время предзагрузки промежутка : 500 мс.

Скриншоты

Скачать

Скачать торрент!

Как скачивать? · Что такое торрент? · Рейтинг и ограничения

Сайт не распространяет и не хранит электронные версии произведений, а лишь предоставляет доступ к создаваемому пользователями каталогу ссылок на торрент-файлы, которые содержат только списки хеш-сумм

[Профиль] [ЛС]
Показать сообщения:    
Ответить на тему

Текущее время: Сегодня 22:16

Часовой пояс: GMT + 4



Вы не можете начинать темы
Вы не можете отвечать на сообщения
Вы не можете редактировать свои сообщения
Вы не можете удалять свои сообщения
Вы не можете голосовать в опросах
Вы не можете прикреплять файлы к сообщениям
Вы не можете скачивать файлы