Короли лета / The Kings of Summer (Джордан Вогт-Робертс / Jordan Vogt-Roberts) [2013, США, драма, комедия, BDRip] VO (Д. Есарев)

Ответить на тему
 
Автор Сообщение

user ®

Стаж: 7 лет 7 месяцев

Сообщений: 20008

Пост Пост: #1 от 06-Дек-2013 09:25

[Цитировать]

Короли лета / The Kings of Summer Страна: США
Жанр: драма, комедия
Год выпуска: 2013
Продолжительность: 01:34:41
Перевод: Одноголосый закадровый - Д. Есарев
Cубтитры: нет
Оригинальная аудиодорожка: нет
Режиссер:
Джордан Вогт-Робертс / Jordan Vogt-Roberts
В ролях:
Крэйг Каковски, Гэбриел Бассо, Кристоффер Картер, Нэйтан Кийес, Ник Офферман, Мойзес Ариас, Эрин Мориарти, Уильям Сонни, Ник Дж. Робинсон, Меган Маллалли
Описание:
Трое друзей — подростки Джо, Патрик, а также эксцентричный и непредсказуемый Биаджо — решают сбежать из родного дома в лес, чтобы начать жизнь, не зависимую от родительского контроля. Построив самодельное жильё, ребята наконец-то ощущают себя полноправными хозяевами собственной судьбы. Так начинается их идеальное лето...
Качество видео: BDRip [Рип с The.Kings.of.Summer.2013.BluRay.1080p.AVC.DTS-HD.MA5.1-CHDBits]
Формат видео: AVI
Видео: Xvid 720x304 23.976fps 1805kbps
Аудио: Dolby AC3 48000Hz 6ch 384kbps [Авторский одноголосый (Д. Есарев)

MediaInfo

General
Complete name : F:\КИНО\The Kings of Summer.2013.BDRip.avi
Format : AVI
Format/Info : Audio Video Interleave
File size : 1.45 GiB
Duration : 1h 34mn
Overall bit rate : 2 199 Kbps
Writing application : VirtualDubModRus 1.5.10.2 (build 2542/release)
Writing library : VirtualDubMod build 2542/release
Video
ID : 0
Format : MPEG-4 Visual
Format profile : Advanced Simple@L5
Format settings, BVOP : 1
Format settings, QPel : No
Format settings, GMC : No warppoints
Format settings, Matrix : Custom
Codec ID : XVID
Codec ID/Hint : XviD
Duration : 1h 34mn
Bit rate : 1 805 Kbps
Width : 720 pixels
Height : 304 pixels
Display aspect ratio : 2.35:1
Frame rate : 23.976 fps
Color space : YUV
Chroma subsampling : 4:2:0
Bit depth : 8 bits
Scan type : Progressive
Compression mode : Lossy
Bits/(Pixel*Frame) : 0.344
Stream size : 1.19 GiB (82%)
Writing library : XviD 65
Audio
ID : 1
Format : AC-3
Format/Info : Audio Coding 3
Mode extension : CM (complete main)
Codec ID : 2000
Duration : 1h 34mn
Bit rate mode : Constant
Bit rate : 384 Kbps
Channel(s) : 6 channels
Channel positions : Front: L C R, Side: L R, LFE
Sampling rate : 48.0 KHz
Bit depth : 16 bits
Compression mode : Lossy
Stream size : 260 MiB (17%)
Alignment : Split accross interleaves
Interleave, duration : 42 ms (1.00 video frame)
Interleave, preload duration : 500 ms
Title : Авторский одноголосый (Д. Есарев)

Скриншот c названием фильма

Скриншоты

Скачать

Скачать торрент!

Как скачивать? · Что такое торрент? · Рейтинг и ограничения

Сайт не распространяет и не хранит электронные версии произведений, а лишь предоставляет доступ к создаваемому пользователями каталогу ссылок на торрент-файлы, которые содержат только списки хеш-сумм

[Профиль] [ЛС]
Показать сообщения:    
Ответить на тему

Текущее время: Сегодня 18:39

Часовой пояс: GMT + 4



Вы не можете начинать темы
Вы не можете отвечать на сообщения
Вы не можете редактировать свои сообщения
Вы не можете удалять свои сообщения
Вы не можете голосовать в опросах
Вы не можете прикреплять файлы к сообщениям
Вы не можете скачивать файлы