Близкие враги / Enemies Closer (Питер Хайамс / Peter Hyams) [2013, Канада, США, триллер, DVDRip] VO + Original (Eng)

Ответить на тему
 
Автор Сообщение

user ®

Стаж: 7 лет 7 месяцев

Сообщений: 20008

Пост Пост: #1 от 05-Дек-2013 23:55

[Цитировать]

Близкие врагиEnemies Closer- Страна: Канада, США
Жанр: триллер
Год выпуска: 2013
Продолжительность: 01:24:50-Перевод: Одноголосый закадровый - Хихикающий доктор
Оригинальная аудиодорожка: английский
Субтитры: нет
Режиссер: Питер Хайамс / Peter Hyams
В ролях: Жан-Клод Ван Дамм, Орландо Джонс, Том Эверетт Скотт, Линзи Коккер, Кристофер Ван Варенберг, Захари Бахаров, Атанас Сребрев, Мэтт Медрано, Йонас Токингтон, Христо Митцков, Владо Мажанаов, Регги Варис-Описание: Двум заклятым врагам, столкнувшимся в лесу на американо-канадской границе, приходится объединиться в борьбе против наркокурьеров, желающих любой ценой вернуть свой потерянный груз.-


MPAA: R - Лицам до 17 лет обязательно присутствие взрослого-

Доп. Информация

Сценарий: Эрик Бромберг / Eric Bromberg, Джеймс Бромберг / James Bromberg
Продюсер: Бобби Рангелов / Bobby Ranghelov, Кортни Соломон / Courtney Solomon, Моше Дайамант / Moshe Diamant, Стефани Калеб / Stephanie Caleb, Кристофер Милбёрн / Christopher Milburn
Оператор: Питер Хайамс / Peter Hyams
Композитор: Тони Моралес / Tony Morales
Бюджет: $5 000 000
Мировая премьера: 4 декабря 2013
-Качество: DVDRip
Контейнер: AVI
Видео: XviD, 720x384 (1.875), 1715 kbps, 23,976 fps, 0,259 bpp
Аудио №1: Russian: MP3 / 2.0 / 44 kHz / 192 kbps /
Аудио №2: English: AC3 / 5.1 / 48 kHz / 384 kbps / 16 bit-

Media Info

General
Complete name : G:\Enemies.Closer.2013.DVDRip_1400Mb.avi
Format : AVI
Format/Info : Audio Video Interleave
File size : 1.37 GiB
Duration : 1h 24mn
Overall bit rate : 2 306 Kbps
Writing application : VirtualDubMod 1.5.10.2 (build 2540/release)
Writing library : VirtualDubMod build 2540/release
Video
ID : 0
Format : MPEG-4 Visual
Format profile : Advanced Simple@L5
Format settings, BVOP : 2
Format settings, QPel : No
Format settings, GMC : No warppoints
Format settings, Matrix : Custom
Codec ID : XVID
Codec ID/Hint : XviD
Duration : 1h 24mn
Bit rate : 1 716 Kbps
Width : 720 pixels
Height : 384 pixels
Display aspect ratio : 1.875
Frame rate : 23.976 fps
Color space : YUV
Chroma subsampling : 4:2:0
Bit depth : 8 bits
Scan type : Progressive
Compression mode : Lossy
Bits/(Pixel*Frame) : 0.259
Stream size : 1.02 GiB (74%)
Writing library : XviD 1.2.1 (UTC 2008-12-04)
Audio #1
ID : 1
Format : MPEG Audio
Format version : Version 1
Format profile : Layer 3
Codec ID : 55
Codec ID/Hint : MP3
Duration : 1h 24mn
Bit rate mode : Constant
Bit rate : 192 Kbps
Channel(s) : 2 channels
Sampling rate : 44.1 KHz
Compression mode : Lossy
Stream size : 117 MiB (8%)
Alignment : Split accross interleaves
Interleave, duration : 42 ms (1.00 video frame)
Interleave, preload duration : 500 ms
Audio #2
ID : 2
Format : AC-3
Format/Info : Audio Coding 3
Mode extension : CM (complete main)
Codec ID : 2000
Duration : 1h 24mn
Bit rate mode : Constant
Bit rate : 384 Kbps
Channel(s) : 6 channels
Channel positions : Front: L C R, Side: L R, LFE
Sampling rate : 48.0 KHz
Bit depth : 16 bits
Compression mode : Lossy
Stream size : 233 MiB (17%)
Alignment : Split accross interleaves
Interleave, duration : 42 ms (1.00 video frame)
Interleave, preload duration : 500 ms

Скриншот с названием фильма

Скриншоты

Скачать

Скачать торрент!

Как скачивать? · Что такое торрент? · Рейтинг и ограничения

Сайт не распространяет и не хранит электронные версии произведений, а лишь предоставляет доступ к создаваемому пользователями каталогу ссылок на торрент-файлы, которые содержат только списки хеш-сумм

[Профиль] [ЛС]
Показать сообщения:    
Ответить на тему

Текущее время: Сегодня 08:09

Часовой пояс: GMT + 4



Вы не можете начинать темы
Вы не можете отвечать на сообщения
Вы не можете редактировать свои сообщения
Вы не можете удалять свои сообщения
Вы не можете голосовать в опросах
Вы не можете прикреплять файлы к сообщениям
Вы не можете скачивать файлы