Хроники ломбарда / Pawn Shop Chronicles (Уэйн Крамер / Wayne Kramer) [2013, США, криминал, комедия, боевик, WEB-DLRip] VO (Артём Белоконский) + Original Eng

Ответить на тему
 
Автор Сообщение

user ®

Стаж: 7 лет 7 месяцев

Сообщений: 20008

Пост Пост: #1 от 05-Дек-2013 17:00

[Цитировать]

Хроники ломбарда / Pawn Shop Chronicles
«Каждая вещь хранит секрет»
- Страна: США / Mimran Schur Pictures, Upload Films
Жанр: криминал, комедия, боевик
Год выпуска: 2013
Продолжительность: 01:52:27
Перевод: Одноголосый закадровый Артём Белоконский
Cубтитры: нет
Оригинальная аудиодорожка: английский
Режиссер: Уэйн Крамер / Wayne Kramer- -В ролях:
Пол Уокер, Мэтт Диллон, Брендан Фрейзер, Кевин О. Ранкин, Винсент Д’Онофрио, Норман Ридус, Чи МакБрайд, Элайджа Вуд, DJ Куаллс, Пелл Джеймс и др.
Описание:
Три разные истории объединяет ломбард в захолустном городишке. Именно там пересекаются персонажи, казалось бы, разных сюжетных линий.
Первая история — криминальная комедия о наркоманах-неудачниках, пытающихся ограбить своего дилера.
Вторая — триллер, где неожиданная находка в ломбарде кольца пропавшей много лет назад жены приводит мужчину к маньяку, удерживающему в плену 21 девушку.
Третья история — комедия о жизни двойника Элвиса, кочующего со своим шоу по ярмаркам американской провинции.
Доп. информация: в переводе присутствует ненормативная лексика.
Качество видео: WEB-DLRip | Сэмпл
Формат видео: AVI
Видео: MPEG4, XviD, 720x400 (16:9), 23.976 fps, 1 833 Kbps (0.265 bit/pixel)
Аудио #1: AC-3, 48.0 KHz, 6 ch, 384 Kbps, CBR (Russian)
Аудио #2: AC-3, 48.0 KHz, 6 ch, 384 Kbps, CBR (English)

MI

General
Complete name                            : E:\downloads\Hronoki.lombarda.2013.L1.HDRip.2100MB.avi
Format                                   : AVI
Format/Info                              : Audio Video Interleave
File size                                : 2.05 GiB
Duration                                 : 1h 52mn
Overall bit rate                         : 2 615 Kbps
Writing application                      : VirtualDubMod 1.5.10.2 (build 2540/release)
Writing library                          : VirtualDubMod build 2540/release
Video
ID                                       : 0
Format                                   : MPEG-4 Visual
Format profile                           : Advanced Simple@L5
Format settings, BVOP                    : 2
Format settings, QPel                    : No
Format settings, GMC                     : No warppoints
Format settings, Matrix                  : Default (MPEG)
Codec ID                                 : XVID
Codec ID/Hint                            : XviD
Duration                                 : 1h 52mn
Bit rate                                 : 1 833 Kbps
Width                                    : 720 pixels
Height                                   : 400 pixels
Display aspect ratio                     : 16:9
Frame rate                               : 23.976 fps
Color space                              : YUV
Chroma subsampling                       : 4:2:0
Bit depth                                : 8 bits
Scan type                                : Progressive
Compression mode                         : Lossy
Bits/(Pixel*Frame)                       : 0.265
Stream size                              : 1.44 GiB (70%)
Writing library                          : XviD 1.2.1 (UTC 2008-12-04)
Audio #1
ID                                       : 1
Format                                   : AC-3
Format/Info                              : Audio Coding 3
Mode extension                           : CM (complete main)
Format settings, Endianness              : Big
Codec ID                                 : 2000
Duration                                 : 1h 52mn
Bit rate mode                            : Constant
Bit rate                                 : 384 Kbps
Channel count                            : 6 channels
Channel positions                        : Front: L C R, Side: L R, LFE
Sampling rate                            : 48.0 KHz
Bit depth                                : 16 bits
Compression mode                         : Lossy
Stream size                              : 309 MiB (15%)
Alignment                                : Split accross interleaves
Interleave, duration                     : 42 ms (1.00 video frame)
Interleave, preload duration             : 500 ms
Audio #2
ID                                       : 2
Format                                   : AC-3
Format/Info                              : Audio Coding 3
Mode extension                           : CM (complete main)
Format settings, Endianness              : Big
Codec ID                                 : 2000
Duration                                 : 1h 52mn
Bit rate mode                            : Constant
Bit rate                                 : 384 Kbps
Channel count                            : 6 channels
Channel positions                        : Front: L C R, Side: L R, LFE
Sampling rate                            : 48.0 KHz
Bit depth                                : 16 bits
Compression mode                         : Lossy
Stream size                              : 309 MiB (15%)
Alignment                                : Split accross interleaves
Interleave, duration                     : 42 ms (1.00 video frame)
Interleave, preload duration             : 500 ms

Скриншоты


Скачать

Скачать торрент!

Как скачивать? · Что такое торрент? · Рейтинг и ограничения

Сайт не распространяет и не хранит электронные версии произведений, а лишь предоставляет доступ к создаваемому пользователями каталогу ссылок на торрент-файлы, которые содержат только списки хеш-сумм

[Профиль] [ЛС]
Показать сообщения:    
Ответить на тему

Текущее время: Сегодня 14:35

Часовой пояс: GMT + 4



Вы не можете начинать темы
Вы не можете отвечать на сообщения
Вы не можете редактировать свои сообщения
Вы не можете удалять свои сообщения
Вы не можете голосовать в опросах
Вы не можете прикреплять файлы к сообщениям
Вы не можете скачивать файлы