Мой будущий тесть – аферист / Lionhead (Томми Реннер / Tommy Rennier) [2013, США, драма, комедия, криминал, WEB-DLRip] MVO

Ответить на тему
 
Автор Сообщение

user ®

Стаж: 7 лет 7 месяцев

Сообщений: 20008

Пост Пост: #1 от 05-Дек-2013 13:50

[Цитировать]

-Мой будущий тесть – аферист / Lionhead-
Страна: США
Жанр: драма, комедия, криминал
Год выпуска: 2013
Продолжительность: 01:37:58
Перевод: Профессиональный (многоголосый закадровый)
Cубтитры: нет
Режиссер: Томми Реннер / Tommy Rennier
В ролях: Майкл Мэдсен, Рэй Уайз, Трэвор Лиссауер, Брайан Перри, Джилл Креншоу, Дэниэл Робак, Дирдри Лавджой, Кэролайн Морахэн, Ричард Рили, Дуан Уайтакер
Описание: Фрэнк, молодой человек, отчаянно хочет жениться на своей подруге, Дарлин, против желания ее отца. Когда Фрэнк наследует большую сумму денег, он решает купить кольцо и сделать предложение. К сожалению, он покупает кольцо вместе с Тедом, мошенником — авантюристом. Родители невесты, быстро определяют подделку и грозятся разорвать помолвку. Фрэнку приходится находить различные ухищрения, чтобы свадьба состоялась.
Качество видео: WEB-DLRip
Формат видео: AVI
Видео: XviD, 1715 Kbps, 24,000fps, 720x304
Аудио: AC3, 48.0 KHz, 6 ch, 448 Kbps
- -

MediaInfo

Общее
Полное имя : C:\Раздачи\Moj.bydyshij.testj.aferist.2013.P.WEBDLRip.avi
Формат : AVI
Формат/Информация : Audio Video Interleave
Размер файла : 1,46 Гбайт
Продолжительность : 1 ч. 36 м.
Общий поток : 2173 Кбит/сек
Программа кодирования : VirtualDubMod 1.5.10.2 (build 2540/release)
Библиотека кодирования : VirtualDubMod build 2540/release
Видео
Идентификатор : 0
Формат : MPEG-4 Visual
Профиль формата : Advanced Simple@L5
Параметр BVOP формата : 2
Параметр QPel формата : Нет
Параметр GMC формата : Без точки перехода
Параметр матрицы формата : Default (MPEG)
Идентификатор кодека : XVID
Идентификатор кодека/Подсказка : XviD
Продолжительность : 1 ч. 36 м.
Битрейт : 1715 Кбит/сек
Ширина : 720 пикселей
Высота : 304 пикселя
Соотношение сторон : 2,35:1
Частота кадров : 24,000 кадра/сек
Цветовое пространство : YUV
Субдискретизация насыщенности : 4:2:0
Битовая глубина : 8 бит
Тип развёртки : Прогрессивная
Метод сжатия : С потерями
Бит/(Пиксели*Кадры) : 0.327
Размер потока : 1,15 Гбайт (79%)
Библиотека кодирования : XviD 1.2.1 (UTC 2008-12-04)
Аудио
Идентификатор : 1
Формат : AC-3
Формат/Информация : Audio Coding 3
Расширение режима : CM (complete main)
Параметр Endianness формата : Big
Идентификатор кодека : 2000
Продолжительность : 1 ч. 36 м.
Вид битрейта : Постоянный
Битрейт : 448 Кбит/сек
Каналы : 6 каналов
Расположение каналов : Front: L C R, Side: L R, LFE
Частота : 48,0 КГц
Битовая глубина : 16 бит
Метод сжатия : С потерями
Размер потока : 308 Мбайт (21%)
Выравнивание : Разделение по промежуткам
Продолжительность промежутка : 42 мс. (1,00 видеокадр)
Время предзагрузки промежутка : 500 мс.

Скриншот c названием фильма

Скриншоты



- -
Скачать

Скачать торрент!

Как скачивать? · Что такое торрент? · Рейтинг и ограничения

Сайт не распространяет и не хранит электронные версии произведений, а лишь предоставляет доступ к создаваемому пользователями каталогу ссылок на торрент-файлы, которые содержат только списки хеш-сумм

[Профиль] [ЛС]
Показать сообщения:    
Ответить на тему

Текущее время: Сегодня 14:48

Часовой пояс: GMT + 4



Вы не можете начинать темы
Вы не можете отвечать на сообщения
Вы не можете редактировать свои сообщения
Вы не можете удалять свои сообщения
Вы не можете голосовать в опросах
Вы не можете прикреплять файлы к сообщениям
Вы не можете скачивать файлы