Индюки: Назад в будущее / Free Birds (Джимми Хейуорд / Jimmy Hayward) [2013 г., мультфильм, комедия, приключения, семейный, DVDRip-AVC] Dub

Ответить на тему
 
Автор Сообщение

user ®

Стаж: 13 лет

Сообщений: 15041

Пост Пост: #1 от 05-Дек-2013 02:20

[Цитировать]

- P R E S E N T SИндюки: Назад в будущее / Free Birds- Страна: США
Жанр: мультфильм, комедия, приключения, семейный
Продолжительность: 01:27:19
Год выпуска: 2013
Перевод: Профессиональный (полное дублирование)
Субтитры: русских нет-Режиссёр: Джимми Хейуорд / Jimmy Hayward
Роли озвучивали: Оуэн Уилсон, Вуди Харрельсон, Эми Полер, Джордж Такей, Колм Мини, Кит Дэвид, Дэн Фоглер, Джимми Хейуорд, Кейтлин Мехер, Карлос Аласраки, Джефф Бьянкалана, Дэнни Кэри, Карлос Понсе, Роберт Белтран, Лесли Никол, Скотт Можер...
Роли дублировали: Денис Колесников, Ян Розенберг, Светлана Молодцова, Василиса Эльдарова, Даниил Эльдаров- | | -Описание: Индюк Реджи вырос на обычной ферме, его жизнь была скучной и однообразной, как и у других птиц. Однако он отличался от сородичей тем, что умел пользоваться смекалкой и понимал, зачем его кормят. Поедание индейки на День Благодарения - знаменитая американская традиция, которая определяет смысл существования всех индюков на этой ферме. Однажды у Реджи появилась возможность кардинально изменить ситуацию: вместе с безумным приятелем Джейком они отправляются в необычное путешествие на машине времени. Основная задача - вернуться во времена, когда зарождалась традиция приготовления индейки на праздник, и изменить ход истории...-Доп. информация: Анаморфный рип 720x552@1024x552 (1.85:1) сделан с DVD5 R5 Индюки: Назад в будущее / Free Birds.-Сэмпл/Sample (12.1 MB, 1 минута)-Качество: DVDRip-AVC
Формат: MKV
Видео: 720x552@1024x552 (1.85:1), 25,000 fps, ~1760 kbps avg, 0.177 bit/pixel
Аудио #1: Русский, AC3, 6 ch, 48 kHz, 384 kbps - Дубляж | Студия Мосфильм-Мастер
Субтитры: нет
Навигация по главам: есть (12 не именованных глав)

MediaInfo / x264Log

x264Log

raw [info]: 720x552p 64:45 @ 25/1 fps (cfr)x264 [info]: using SAR=64/45x264 [info]: using cpu capabilities: MMX2 SSE2Fast SSSE3 SSE4.2 AVX XOP FMA4 FMA3 LZCNT BMI1x264 [info]: profile High, level 4.1x264 [info]: frame I:1579 Avg QP:14.69 size: 65482 PSNR Mean Y:48.31 U:49.97 V:49.92 Avg:48.77 Global:48.01x264 [info]: frame P:36391 Avg QP:16.95 size: 15641 PSNR Mean Y:46.88 U:48.80 V:48.85 Avg:47.37 Global:46.42x264 [info]: frame B:92997 Avg QP:20.07 size: 5164 PSNR Mean Y:46.52 U:48.81 V:48.85 Avg:47.07 Global:45.90x264 [info]: consecutive B-frames: 5.9% 4.6% 14.1% 40.2% 12.9% 17.5% 2.3% 0.6% 0.3% 0.1% 0.6% 0.8%x264 [info]: mb I I16..4: 7.2% 70.2% 22.6%x264 [info]: mb P I16..4: 1.4% 13.4% 1.9% P16..4: 22.7% 19.3% 10.3% 1.9% 0.3% skip:28.6%x264 [info]: mb B I16..4: 0.3% 2.8% 0.2% B16..8: 21.4% 12.0% 2.4% direct: 3.7% skip:57.2% L0:34.8% L1:45.3% BI:19.9%x264 [info]: 8x8 transform intra:79.5% inter:57.6%x264 [info]: coded y,uvDC,uvAC intra: 84.1% 88.6% 73.6% inter: 15.8% 15.2% 6.4%x264 [info]: i16 v,h,dc,p: 35% 14% 6% 46%x264 [info]: i8 v,h,dc,ddl,ddr,vr,hd,vl,hu: 19% 10% 11% 8% 9% 12% 8% 13% 11%x264 [info]: i4 v,h,dc,ddl,ddr,vr,hd,vl,hu: 21% 11% 10% 7% 12% 12% 9% 9% 8%x264 [info]: i8c dc,h,v,p: 34% 24% 23% 19%x264 [info]: Weighted P-Frames: Y:5.6% UV:4.2%x264 [info]: ref P L0: 56.7% 10.1% 14.7% 4.9% 3.7% 2.7% 2.3% 1.3% 1.2% 1.1% 1.1% 0.4% 0.0%x264 [info]: ref B L0: 82.4% 7.8% 3.4% 2.1% 1.3% 1.0% 0.8% 0.5% 0.3% 0.2%x264 [info]: ref B L1: 95.2% 4.8%x264 [info]: SSIM Mean Y:0.9896306 (19.842db)x264 [info]: PSNR Mean Y:46.644 U:48.823 V:48.860 Avg:47.173 Global:46.061 kb/s:1760.49encoded 130967 frames, 10.39 fps, 1760.49 kb/s
GeneralUnique ID : 197112804727898666168920773972992518897 (0x944A8B9917C48C599078AF9E6A84EAF1)Complete name : Free.Birds.2013.DVDRip-AVC.552p.dfcbit.mkvFormat : MatroskaFormat version : Version 2File size : 1.31 GiBDuration : 1h 27mnOverall bit rate : 2 146 KbpsEncoded date : UTC 2013-12-04 19:26:07Writing application : mkvmerge v4.0.0 ('The Stars were mine') built on Jun 6 2010 16:18:42Writing library : libebml v1.0.0 + libmatroska v1.0.0
VideoID : 1Format : AVCFormat/Info : Advanced Video CodecFormat profile : High@L4.1Format settings, CABAC : YesFormat settings, ReFrames : 11 framesCodec ID : V_MPEG4/ISO/AVCDuration : 1h 27mnBit rate : 1 760 KbpsWidth : 720 pixelsHeight : 552 pixelsDisplay aspect ratio : 1.85:1Frame rate mode : ConstantFrame rate : 25.000 fpsColor space : YUVChroma subsampling : 4:2:0Bit depth : 8 bitsScan type : ProgressiveBits/(Pixel*Frame) : 0.177Stream size : 1.07 GiB (80%)Title : PAL, 720x552@1024x552 (1.85:1), DVDRip 552p - tRuAVC & Multfilmy [DFCbit]Writing library : x264 core 140 r2377kMod 1ca7bb9Encoding settings : cabac=1 / ref=11 / deblock=1:-2:-1 / analyse=0x3:0x133 / me=umh / subme=11 / psy=1 / fade_compensate=0.00 / psy_rd=0.60:0.00 / mixed_ref=1 / me_range=32 / chroma_me=1 / trellis=2 / 8x8dct=1 / cqm=0 / deadzone=21,11 / fast_pskip=0 / chroma_qp_offset=-2 / threads=12 / lookahead_threads=3 / sliced_threads=0 / nr=0 / decimate=1 / interlaced=0 / bluray_compat=0 / constrained_intra=0 / fgo=0 / bframes=11 / b_pyramid=2 / b_adapt=2 / b_bias=0 / direct=1 / weightb=1 / open_gop=0 / weightp=2 / keyint=250 / keyint_min=25 / scenecut=40 / intra_refresh=0 / rc_lookahead=70 / rc=crf / mbtree=0 / crf=18.0900 / qcomp=0.80 / qpmin=0 / qpmax=69 / qpstep=4 / vbv_maxrate=25000 / vbv_bufsize=50000 / crf_max=0.0 / nal_hrd=none / filler=0 / ip_ratio=1.40 / pb_ratio=1.30 / aq=3:0.90Language : EnglishDefault : YesForced : NoColor primaries : BT.601 PALTransfer characteristics : BT.470 System B, BT.470 System GMatrix coefficients : BT.601
AudioID : 2Format : AC-3Format/Info : Audio Coding 3Mode extension : CM (complete main)Format settings, Endianness : BigCodec ID : A_AC3Duration : 1h 27mnBit rate mode : ConstantBit rate : 384 KbpsChannel count : 6 channelsChannel positions : Front: L C R, Side: L R, LFESampling rate : 48.0 KHzBit depth : 16 bitsCompression mode : LossyStream size : 240 MiB (18%)Title : AC3, 6 ch, 48 kHz, 384 kbps - ДубляжLanguage : RussianDefault : YesForced : No
Menu00:00:00.000 : en:Chapter 100:08:07.120 : en:Chapter 200:15:37.160 : en:Chapter 300:21:39.160 : en:Chapter 400:30:56.440 : en:Chapter 500:37:25.840 : en:Chapter 600:47:41.840 : en:Chapter 700:53:40.120 : en:Chapter 800:59:16.720 : en:Chapter 901:07:41.800 : en:Chapter 1001:13:34.240 : en:Chapter 1101:20:30.880 : en:Chapter 12

Скриншоты

Скриншот с названием мультфильма
--DVDRip-AVC


Source DVD

-Данный релиз не будет воспроизводиться на бытовых плеерах не поддерживающих MKV и H.264
Скачать

Скачать торрент! Индюки: Назад в будущее / Free Birds (Джимми Хейуорд / Jimmy Hayward) [2013 г., мультфильм, комедия, приключения, семейный, DVDRip-AVC] Dub

Как скачивать? · Что такое торрент? · Рейтинг и ограничения

Сайт не распространяет и не хранит электронные версии произведений, а лишь предоставляет доступ к создаваемому пользователями каталогу ссылок на торрент-файлы, которые содержат только списки хеш-сумм

[Профиль] [ЛС]
Показать сообщения:    
Ответить на тему

Текущее время: Сегодня 00:28

Часовой пояс: GMT + 4



Вы не можете начинать темы
Вы не можете отвечать на сообщения
Вы не можете редактировать свои сообщения
Вы не можете удалять свои сообщения
Вы не можете голосовать в опросах
Вы не можете прикреплять файлы к сообщениям
Вы не можете скачивать файлы