Ночь страха 2: Свежая кровь / Fright Night 2: New Blood (Эдуардо Родригез / Eduardo Rodriguez) [2013, США, Фантастика, комедия, боевик, BDRip 1080p] MVO + Original + subs (Rus, Eng SDH)

Ответить на тему
 
Автор Сообщение

user ®

Стаж: 7 лет 7 месяцев

Сообщений: 20008

Пост Пост: #1 от 05-Дек-2013 02:20

[Цитировать]

Ночь страха 2: Свежая кровь / Fright Night 2: New Blood- Год выпуска: 2013
Страна: США
Жанр: Фантастика, комедия, боевик
Продолжительность: 01:39:43
Перевод: Профессиональный (Многоголосый закадровый)
Оригинальная звуковая дорожка: English
Cубтитры: Russian (Blu-ray EUR), English (SDH)-Режиссер: Эдуардо Родригез / Eduardo Rodriguez
В ролях: Уилл Пэйн, Джейми Мюррэй, Шон Пауэр, Саша Паркинсон, Крис Уоллер, Джон-Кристиан Бейтман, Лиана Маргиняну, Алина Минзу, Ади Хостиук, Джоэль Коутинью
О фильме: Молодые студенты колледжа внезапно узнают страшную правду о своем новом профессоре. Оказывается, их профессор - красивая молодая женщина Джерри Дэндридж - настоящая вампирша! Пытаясь донести это до остальных, ребята, сами того не желая, подписали себе смертный приговор. Потому что Джерри совершенно не хочет, чтобы ее тайна стала достоянием общественности...-iNK!
Релиз: by Dreamcatcher
Формат: MKV
Видео: 1920x1080 at 23.976 fps, x264@L4.1, 2pass, ~13470 kbps avg
Аудио #1: Russian: 48 kHz, DTS, 3/2 (L,C,R,l,r) + LFE ch, ~768.00 kbps avg |Дубляж, Blu-ray CEE|
Аудио #2: English: 48 kHz DTS, 3/2 (L,C,R,l,r) + LFE ch, ~1536.00 kbps avg
Аудио #3: English: 48 kHz, AC3, 2/0 (L,R) ch, ~224.00 kbps avg |Commentary With Eduardo Rodriguez, Alison Rosenzweig And Michael Gaeta|
Семпл-

-

mInfo


Формат : Matroska
Версия формата : Version 4 / Version 2
Размер файла : 11,1 Гбайт
Продолжительность : 1 ч. 39 м.
Общий поток : 16,0 Мбит/сек
Название фильма : Fright Night 2: New Blood (2013) - Release for HDCLUB
Дата кодирования : UTC 2013-12-04 20:09:34
Программа кодирования : mkvmerge v6.1.0 ('Old Devil') built on Mar 2 2013 14:32:37
Библиотека кодирования : libebml v1.3.0 + libmatroska v1.4.0
Видео
Идентификатор : 1
Формат : AVC
Формат/Информация : Advanced Video Codec
Профиль формата : High@L4.1
Параметр CABAC формата : Да
Параметр ReFrames формата : 4 кадра
Идентификатор кодека : V_MPEG4/ISO/AVC
Продолжительность : 1 ч. 39 м.
Битрейт : 13,5 Мбит/сек
Ширина : 1920 пикселей
Высота : 1080 пикселей
Соотношение сторон : 16:9
Режим частоты кадров : Постоянный
Частота кадров : 23,976 кадра/сек
Цветовое пространство : YUV
Субдискретизация насыщенности : 4:2:0
Битовая глубина : 8 бит
Тип развёртки : Прогрессивная
Бит/(Пиксели*Кадры) : 0.271
Размер потока : 9,16 Гбайт (82%)
Заголовок : Fright Night 2: New Blood (2013) - Release for HDCLUB
Библиотека кодирования : x264 core 133 r2334 a3ac64b
Настройки программы : cabac=1 / ref=4 / deblock=1:-3:-3 / analyse=0x3:0x113 / me=umh / subme=11 / psy=1 / psy_rd=1.05:0.10 / mixed_ref=1 / me_range=48 / chroma_me=1 / trellis=2 / 8x8dct=1 / cqm=0 / deadzone=21,11 / fast_pskip=0 / chroma_qp_offset=-5 / threads=12 / lookahead_threads=2 / sliced_threads=0 / nr=0 / decimate=0 / interlaced=0 / bluray_compat=0 / constrained_intra=0 / bframes=8 / b_pyramid=2 / b_adapt=2 / b_bias=0 / direct=3 / weightb=1 / open_gop=0 / weightp=2 / keyint=250 / keyint_min=23 / scenecut=40 / intra_refresh=0 / rc=2pass / mbtree=0 / bitrate=13470 / ratetol=1.0 / qcomp=0.70 / qpmin=0 / qpmax=69 / qpstep=4 / cplxblur=20.0 / qblur=0.5 / ip_ratio=1.20 / pb_ratio=1.30 / aq=1:0.85
Язык : English
Default : Да
Forced : Нет
Аудио #1
Идентификатор : 2
Формат : DTS
Формат/Информация : Digital Theater Systems
Режим : 16
Параметр Endianness формата : Big
Идентификатор кодека : A_DTS
Продолжительность : 1 ч. 39 м.
Вид битрейта : Постоянный
Битрейт : 768 Кбит/сек
Каналы : 6 каналов
Расположение каналов : Front: L C R, Side: L R, LFE
Частота : 48,0 КГц
Битовая глубина : 24 бит
Метод сжатия : С потерями
Размер потока : 548 Мбайт (5%)
Заголовок : DTS 5.1 @ 768 kbps - MVO, Blu-ray EUR
Язык : Russian
Default : Да
Forced : Нет
Аудио #2
Идентификатор : 3
Формат : DTS
Формат/Информация : Digital Theater Systems
Режим : 16
Параметр Endianness формата : Big
Идентификатор кодека : A_DTS
Продолжительность : 1 ч. 39 м.
Вид битрейта : Постоянный
Битрейт : 1509 Кбит/сек
Каналы : 6 каналов
Расположение каналов : Front: L C R, Side: L R, LFE
Частота : 48,0 КГц
Битовая глубина : 24 бит
Метод сжатия : С потерями
Размер потока : 1,05 Гбайт (9%)
Заголовок : DTS 5.1 @ 1536 kbps
Язык : English
Default : Нет
Forced : Нет
Аудио #3
Идентификатор : 4
Формат : AC-3
Формат/Информация : Audio Coding 3
Расширение режима : CM (complete main)
Параметр Endianness формата : Big
Идентификатор кодека : A_AC3
Продолжительность : 1 ч. 39 м.
Вид битрейта : Постоянный
Битрейт : 224 Кбит/сек
Каналы : 2 канала
Расположение каналов : Front: L R
Частота : 48,0 КГц
Битовая глубина : 16 бит
Метод сжатия : С потерями
Размер потока : 160 Мбайт (1%)
Заголовок : AC3 2.0 @ 224 kbps - Commentary With Eduardo Rodriguez, Alison Rosenzweig And Michael Gaeta
Язык : English
Default : Нет
Forced : Нет
Текст #1
Идентификатор : 5
Формат : UTF-8
Идентификатор кодека : S_TEXT/UTF8
Идентификатор кодека/Информация : UTF-8 Plain Text
Заголовок : Blu-ray EUR
Язык : Russian
Default : Нет
Forced : Нет
Текст #2
Идентификатор : 6
Формат : UTF-8
Идентификатор кодека : S_TEXT/UTF8
Идентификатор кодека/Информация : UTF-8 Plain Text
Заголовок : SDH
Язык : English
Default : Нет
Forced : Нет
Меню
00:00:00.000 : en:00:00:00.000
00:04:26.266 : en:00:04:26.266
00:07:53.973 : en:00:07:53.973
00:12:35.713 : en:00:12:35.713
00:14:43.549 : en:00:14:43.549
00:18:23.144 : en:00:18:23.144
00:24:15.329 : en:00:24:15.329
00:27:25.352 : en:00:27:25.352
00:32:58.810 : en:00:32:58.810
00:35:49.773 : en:00:35:49.773
00:39:04.384 : en:00:39:04.384
00:46:16.983 : en:00:46:16.983
00:50:34.406 : en:00:50:34.406
00:56:34.182 : en:00:56:34.182
01:03:10.286 : en:01:03:10.286
01:06:37.869 : en:01:06:37.869
01:10:28.599 : en:01:10:28.599
01:12:00.149 : en:01:12:00.149
01:14:49.944 : en:01:14:49.944
01:20:10.139 : en:01:20:10.139
01:25:10.480 : en:01:25:10.480
01:28:41.274 : en:01:28:41.274
01:33:22.388 : en:01:33:22.388
01:36:09.764 : en:01:36:09.764
-
Скачать

Скачать торрент!

Как скачивать? · Что такое торрент? · Рейтинг и ограничения

Сайт не распространяет и не хранит электронные версии произведений, а лишь предоставляет доступ к создаваемому пользователями каталогу ссылок на торрент-файлы, которые содержат только списки хеш-сумм

[Профиль] [ЛС]
Показать сообщения:    
Ответить на тему

Текущее время: Сегодня 02:15

Часовой пояс: GMT + 4



Вы не можете начинать темы
Вы не можете отвечать на сообщения
Вы не можете редактировать свои сообщения
Вы не можете удалять свои сообщения
Вы не можете голосовать в опросах
Вы не можете прикреплять файлы к сообщениям
Вы не можете скачивать файлы