Застрял в любви / Stuck in Love (Джош Бун / Josh Boone) [2013, США, драма, мелодрама, комедия, HDRip] MVO (Victory Films)

Ответить на тему
 
Автор Сообщение

user ®

Стаж: 7 лет 11 месяцев

Сообщений: 20008

Пост Пост: #1 от 05-Дек-2013 02:20

[Цитировать]

Застрял в любви / Stuck in Love
Страна: США
Жанр: драма, мелодрама, комедия
Год выпуска: 2013
Продолжительность: 01:36:52
Перевод: Любительский (многоголосый закадровый) Victory Films
Cубтитры: нет
Режиссер: Джош Бун / Josh Boone
В ролях: Лили Коллинз, Логан Лерман, Кристен Белл, Дженнифер Коннелли, Нат Вулф, Стивен Кинг, Глен Пауэлл, Лиана Либерато, Грег Киннер, Спенсер Бреслин
Описание: Сюжет фильма сосредоточен на запутанных отношениях между известным новеллистом Биллом Борджесом, его бывшей женой и их детьми — дочерью-студенткой Самантой и сыном-тинейджером...
Сэмпл: http://multi-up.com/928957

Качество видео: HDRip
Формат видео: AVI
Видео: XviD, 720x384, 1631 кбит/с, 23.976 fps
Аудио: AC3, 384 кбит/с, 6 ch, 48.0 KHz

MediaInfo

Общее
Полное имя : D:\Stuck.In.Love_2012.HDRip.avi
Формат : AVI
Формат/Информация : Audio Video Interleave
Размер файла : 1,37 Гбайт
Продолжительность : 1 ч. 36 м.
Общий поток : 2024 Кбит/сек
Программа кодирования : VirtualDubMod 1.5.10.2 (build 2540/release)
Библиотека кодирования : VirtualDubMod build 2540/release
Видео
Идентификатор : 0
Формат : xvid
Идентификатор кодека : xvid
Продолжительность : 1 ч. 36 м.
Битрейт : 1631 Кбит/сек
Ширина : 720 пикселей
Высота : 384 пикселя
Соотношение сторон : 1,85:1
Частота кадров : 23,976 кадра/сек
Бит/(Пиксели*Кадры) : 0.246
Размер потока : 1,10 Гбайт (81%)
Аудио
Идентификатор : 1
Формат : AC-3
Формат/Информация : Audio Coding 3
Расширение режима : CM (complete main)
Параметр Endianness формата : Big
Идентификатор кодека : 2000
Продолжительность : 1 ч. 36 м.
Вид битрейта : Постоянный
Битрейт : 384 Кбит/сек
Каналы : 6 каналов
Расположение каналов : Front: L C R, Side: L R, LFE
Частота : 48,0 КГц
Битовая глубина : 16 бит
Метод сжатия : С потерями
Размер потока : 266 Мбайт (19%)
Выравнивание : Разделение по промежуткам
Продолжительность промежутка : 42 мс. (1,00 видеокадр)
Время предзагрузки промежутка : 500 мс.

Скриншот c названием фильма

Скриншоты

Скачать

Скачать торрент!

Как скачивать? · Что такое торрент? · Рейтинг и ограничения

Сайт не распространяет и не хранит электронные версии произведений, а лишь предоставляет доступ к создаваемому пользователями каталогу ссылок на торрент-файлы, которые содержат только списки хеш-сумм

[Профиль] [ЛС]
Показать сообщения:    
Ответить на тему

Текущее время: Сегодня 13:10

Часовой пояс: GMT + 4



Вы не можете начинать темы
Вы не можете отвечать на сообщения
Вы не можете редактировать свои сообщения
Вы не можете удалять свои сообщения
Вы не можете голосовать в опросах
Вы не можете прикреплять файлы к сообщениям
Вы не можете скачивать файлы