Страсти Дон Жуана / Don Jon (Джозеф Гордон-Левитт / Joseph Gordon-Levitt) [2013, США, комедия, мелодрама, BDRip-AVC] Dub

Ответить на тему
 
Автор Сообщение

user ®

Стаж: 7 лет 7 месяцев

Сообщений: 20008

Пост Пост: #1 от 05-Дек-2013 02:20

[Цитировать]

Страсти Дон ЖуанаDon Jon«В этой жизни меня заботит всего несколько вещей: мое тело, мой дом, моя тачка, мои друзья, мои телки и… порнуха»- Страна: США
Жанр: комедия, мелодрама
Год выпуска: 2013
Продолжительность: 01:26:13-Перевод: Профессиональный (полное дублирование) [Лицензия]
Субтитры: нет
Режиссер: Джозеф Гордон-Левитт / Joseph Gordon-Levitt
В ролях: Джозеф Гордон-Левитт, Скарлетт Йоханссон, Джулианна Мур, Тони Данца, Гленн Хедли, Бри Ларсон, Роб Браун, Джереми Люк, Пол Бен-Виктор, Италиа Риччи, Линдси Броад, Аманда Перез-Описание: Комичная история современного ловеласа, который из каждого любовного приключения вынужден спасаться бегством. Он еще не знает, что недалек тот час, когда ему все-таки придется остепениться...-


MPAA: R - Лицам до 17 лет обязательно присутствие взрослого-

Доп. Информация

Сценарий: Джозеф Гордон-Левитт / Joseph Gordon-Levitt
Продюсер: Рэм Бергман / Ram Bergman, Николя Картье / Nicolas Chartier, Джефф Фрэнкс / Jeff Franks, Брюс Уэйн Гиллис / Bruce Wayne Gillies, Никос Карамагиос / Nikos Karamigios
Оператор: Томас Клосс / Thomas Kloss
Композитор: Нэйтан Джонсон / Nathan Johnson
Бюджет: $6 000 000
Сборы в США: $24 299 641
Сборы в России: $1 986 757
Сборы в мире: $30 272 693
Мировая премьера: 18 января 2013
Релиз на DVD: 26 ноября 2013,
«Парадиз / Активижен»

Релиз на Blu-ray: 10 декабря 2013,
«Парадиз / Активижен»
-Качество: BDRip-AVC (Исходник BD-Remux (1080i))
Контейнер: MKV
Видео: AVC, 1032x432 (2.40:1), 1956 kbps, 25 fps, 0,175 bpp
Аудио: русский / AC3 / 5.1 / 48 kHz / 448 kbps / 16 bit ||-

Знаете ли Вы, что...

  • Версия фильма, которая была показана на фестивале «Сандэнс» в 2013 году, получила рейтинг NC-17. Режиссер Джозеф Гордон-Левитт вырезал из финальной версии некоторые кадры с порно, которое его герой смотрит на протяжении всего фильма. Он решил это сделать, чтобы люди не думали, будто этот фильм только о порнографии.
  • Этот фильм стал режиссерским дебютом Джозефа Гордона-Левитта.
  • Джозеф Гордон-Левитт написал роль специально для Скарлетт Йоханссон и был очень рад, когда она согласилась сняться в фильме.
  • Джозеф Гордон-Левитт и Тони Данца ранее работали вместе в фильме «Ангелы у кромки поля» (1994). Тогда Левитту было всего 12 лет.
  • еще 1 факт

Media Info

General
Unique ID : 190001106201469036444710320444699623178 (0x8EF0E1CA18EC05D98FD2EB2A93F4BF0A)
Complete name : G:\Don.Jon.2013.BDRip-AVC.mkv
Format : Matroska
Format version : Version 2
File size : 1.44 GiB
Duration : 1h 26mn
Overall bit rate : 2 397 Kbps
Encoded date : UTC 2013-12-04 14:38:58
Writing application : mkvmerge v5.8.0 ('No Sleep / Pillow') built on Sep 2 2012 15:37:04
Writing library : libebml v1.2.3 + libmatroska v1.3.0
Video
ID : 1
Format : AVC
Format/Info : Advanced Video Codec
Format profile : High@L4.1
Format settings, CABAC : Yes
Format settings, ReFrames : 12 frames
Codec ID : V_MPEG4/ISO/AVC
Duration : 1h 26mn
Bit rate : 1 956 Kbps
Width : 1 032 pixels
Height : 432 pixels
Display aspect ratio : 2.40:1
Frame rate : 25.000 fps
Color space : YUV
Chroma subsampling : 4:2:0
Bit depth : 8 bits
Scan type : Progressive
Bits/(Pixel*Frame) : 0.175
Stream size : 1.15 GiB (79%)
Writing library : x264 core 138 r2358 9e941d1
Encoding settings : cabac=1 / ref=12 / deblock=1:-2:-2 / analyse=0x3:0x113 / me=umh / subme=9 / psy=1 / psy_rd=1.00:0.15 / mixed_ref=1 / me_range=36 / chroma_me=1 / trellis=2 / 8x8dct=1 / cqm=0 / deadzone=21,11 / fast_pskip=1 / chroma_qp_offset=-3 / threads=12 / lookahead_threads=3 / sliced_threads=0 / nr=0 / decimate=1 / interlaced=0 / bluray_compat=0 / constrained_intra=0 / bframes=12 / b_pyramid=2 / b_adapt=2 / b_bias=0 / direct=3 / weightb=1 / open_gop=0 / weightp=2 / keyint=250 / keyint_min=24 / scenecut=40 / intra_refresh=0 / rc_lookahead=40 / rc=2pass / mbtree=0 / bitrate=1956 / ratetol=1.0 / qcomp=0.60 / qpmin=0 / qpmax=69 / qpstep=4 / cplxblur=20.0 / qblur=0.5 / vbv_maxrate=50000 / vbv_bufsize=62500 / nal_hrd=none / ip_ratio=1.40 / pb_ratio=1.30 / aq=2:1.00
Language : English
Default : Yes
Forced : No
Audio
ID : 2
Format : AC-3
Format/Info : Audio Coding 3
Mode extension : CM (complete main)
Codec ID : A_AC3
Duration : 1h 26mn
Bit rate mode : Constant
Bit rate : 448 Kbps
Channel(s) : 6 channels
Channel positions : Front: L C R, Side: L R, LFE
Sampling rate : 48.0 KHz
Bit depth : 16 bits
Compression mode : Lossy
Stream size : 276 MiB (19%)
Title : Дублированное [лицензия]
Language : Russian
Default : Yes
Forced : No

х264

raw [info]: 1032x432p 1:1 @ 25/1 fps (cfr)
x264 [info]: using SAR=1/1
x264 [info]: using cpu capabilities: MMX2 SSE2Fast SSSE3 SSE4.2 AVX
x264 [info]: profile High, level 4.1
x264 [info]: frame I:984 Avg QP:17.63 size: 58052
x264 [info]: frame P:26270 Avg QP:20.17 size: 19417
x264 [info]: frame B:102085 Avg QP:21.96 size: 6780
x264 [info]: consecutive B-frames: 1.7% 1.8% 9.2% 15.9% 15.1% 37.8% 6.1% 2.6% 2.9% 1.3% 2.0% 1.2% 2.3%
x264 [info]: mb I I16..4: 22.3% 57.6% 20.1%
x264 [info]: mb P I16..4: 5.2% 10.0% 1.5% P16..4: 35.5% 20.8% 11.2% 0.0% 0.0% skip:15.9%
x264 [info]: mb B I16..4: 0.4% 0.6% 0.1% B16..8: 39.0% 9.1% 2.7% direct: 5.8% skip:42.3% L0:45.8% L1:45.0% BI: 9.2%
x264 [info]: 8x8 transform intra:59.2% inter:57.9%
x264 [info]: direct mvs spatial:97.5% temporal:2.5%
x264 [info]: coded y,uvDC,uvAC intra: 59.1% 80.6% 59.1% inter: 23.8% 24.8% 3.3%
x264 [info]: i16 v,h,dc,p: 83% 6% 6% 5%
x264 [info]: i8 v,h,dc,ddl,ddr,vr,hd,vl,hu: 12% 9% 18% 8% 11% 12% 10% 10% 10%
x264 [info]: i4 v,h,dc,ddl,ddr,vr,hd,vl,hu: 14% 9% 9% 8% 13% 14% 11% 11% 11%
x264 [info]: i8c dc,h,v,p: 42% 22% 20% 16%
x264 [info]: Weighted P-Frames: Y:2.9% UV:1.0%
x264 [info]: ref P L0: 43.3% 11.6% 17.6% 5.8% 5.6% 3.8% 3.8% 2.0% 2.0% 1.4% 1.5% 1.3% 0.3% 0.0%
x264 [info]: ref B L0: 67.2% 12.8% 6.4% 3.4% 2.6% 2.2% 1.8% 1.2% 1.3% 0.9% 0.2%
x264 [info]: ref B L1: 91.8% 8.2%
x264 [info]: kb/s:1947.34

Скриншот с названием фильма

Скриншоты

Скачать

Скачать торрент!

Как скачивать? · Что такое торрент? · Рейтинг и ограничения

Сайт не распространяет и не хранит электронные версии произведений, а лишь предоставляет доступ к создаваемому пользователями каталогу ссылок на торрент-файлы, которые содержат только списки хеш-сумм

[Профиль] [ЛС]
Показать сообщения:    
Ответить на тему

Текущее время: Сегодня 13:53

Часовой пояс: GMT + 4



Вы не можете начинать темы
Вы не можете отвечать на сообщения
Вы не можете редактировать свои сообщения
Вы не можете удалять свои сообщения
Вы не можете голосовать в опросах
Вы не можете прикреплять файлы к сообщениям
Вы не можете скачивать файлы