Парклэнд / Parkland (Питер Ландесман / Peter Landesman) [2013, США, триллер, драма, детектив, HDRip] VO (datynet)

Ответить на тему
 
Автор Сообщение

user ®

Стаж: 7 лет 7 месяцев

Сообщений: 20008

Пост Пост: #1 от 05-Дек-2013 02:20

[Цитировать]

ПарклэндParkland«On November 22, 1963, President John F. Kennedy was assassinated. This is the story of what happened next»- Страна: США
Жанр: триллер, драма, детектив
Год выпуска: 2013
Продолжительность: 01:33:39-Перевод: Одноголосый закадровый [datynet]
Субтитры: нет
Режиссер: Питер Ландесман / Peter Landesman
В ролях: Зак Эфрон, Марша Гей Харден, Билли Боб Торнтон, Джеки Уивер, Пол Джаматти, Мэтт Барр, Мэллори Мой, Битси Таллоч, Рон Ливингстон, Джейсон Дуглас, Дэвид Харбор, Джеймс Бэдж Дэйл-Описание: 1963 год. 22 ноября. Даллас. 11:50. Президентский кортеж движется в центр города. 12:30. Раздаются роковые выстрелы. 13:00. Госпиталь Парклэнд. 35-й президент США скончался.
Что стало поводом к убийству президента? Вопрос, который вот уже полвека держит в напряжении человечество... Последняя версия одного из самых громких и неразгаданных преступлений XX века, убийство Джона Ф. Кеннеди - любимого страной президента, молодого умного политика, гениального любовника, водившего опасные романы - с Мэрлин Монро, и еще сотнями красивейших женщин Америки.-


MPAA: PG-13 - Детям до 13 лет просмотр не желателен-

Доп. Информация

Сценарий: Питер Ландесман / Peter Landesman, Винсент Бульози / Vincent Bugliosi
Продюсер: Найджел Синклер / Nigel Sinclair, Гари Гоэцман / Gary Goetzman, Том Хэнкс / Tom Hanks, Мэтт Джексон / Matt Jackson, Билл Пэкстон / Bill Paxton
Оператор: Бэрри Экройд / Barry Ackroyd
Композитор: Джеймс Ньютон Ховард / James Newton Howard
Бюджет: $10 000 000
Сборы в США: $653 651
Мировая премьера: 1 сентября 2013
Релиз на DVD: 18 февраля 2014,
«Парадиз / Активижен»
-Качество: HDRip (Исходник BDRip (720p))
Контейнер: AVI
Видео: XviD, 720x400 (16:9), 1889 kbps, 23,976 fps, 0,274 bpp
Аудио: MP3 / 2.0 / 44 kHz / 192 kbps /-

Знаете ли Вы, что...

  • В основе фильма лежит книга «Восстановленная история: Убийство президента Джона Кеннеди» (Reclaiming History: The Assassination of President John F. Kennedy) бывшего юриста Винсента Буглиози.

Media Info

General
Complete name : G:\Parkland.2013.HDRip.am64.avi
Format : AVI
Format/Info : Audio Video Interleave
File size : 1.37 GiB
Duration : 1h 33mn
Overall bit rate : 2 091 Kbps
Movie name : Parkland.2013.HDRip.am64
Director : ам64
Writing application : VirtualDubModRus 1.5.10.2 (build 2542/release)
Video
ID : 0
Format : MPEG-4 Visual
Format profile : Advanced Simple@L5
Format settings, BVOP : 1
Format settings, QPel : No
Format settings, GMC : No warppoints
Format settings, Matrix : Custom
Codec ID : XVID
Codec ID/Hint : XviD
Duration : 1h 33mn
Bit rate : 1 890 Kbps
Width : 720 pixels
Height : 400 pixels
Display aspect ratio : 16:9
Frame rate : 23.976 fps
Color space : YUV
Chroma subsampling : 4:2:0
Bit depth : 8 bits
Scan type : Progressive
Compression mode : Lossy
Bits/(Pixel*Frame) : 0.274
Stream size : 1.24 GiB (90%)
Writing library : XviD 65
Audio
ID : 1
Format : MPEG Audio
Format version : Version 1
Format profile : Layer 3
Codec ID : 55
Codec ID/Hint : MP3
Duration : 1h 33mn
Bit rate mode : Constant
Bit rate : 192 Kbps
Channel(s) : 2 channels
Sampling rate : 44.1 KHz
Compression mode : Lossy
Stream size : 129 MiB (9%)
Alignment : Split accross interleaves
Interleave, duration : 42 ms (1.00 video frame)
Interleave, preload duration : 500 ms

Скриншот с названием фильма

Скриншоты

Скачать

Скачать торрент!

Как скачивать? · Что такое торрент? · Рейтинг и ограничения

Сайт не распространяет и не хранит электронные версии произведений, а лишь предоставляет доступ к создаваемому пользователями каталогу ссылок на торрент-файлы, которые содержат только списки хеш-сумм

[Профиль] [ЛС]
Показать сообщения:    
Ответить на тему

Текущее время: Сегодня 18:23

Часовой пояс: GMT + 4



Вы не можете начинать темы
Вы не можете отвечать на сообщения
Вы не можете редактировать свои сообщения
Вы не можете удалять свои сообщения
Вы не можете голосовать в опросах
Вы не можете прикреплять файлы к сообщениям
Вы не можете скачивать файлы