Застрял в любви / Stuck in Love (Джош Бун / Josh Boone) [2012, США, драма, мелодрама, комедия, BDRip 1080p] MVO (Victory Films) + Sub Rus, Eng + Original Eng

Ответить на тему
 
Автор Сообщение

user ®

Стаж: 7 лет 7 месяцев

Сообщений: 20008

Пост Пост: #1 от 04-Дек-2013 23:10

[Цитировать]

Застрял в любви / Stuck in Love«A story of first loves and second chances»- Выпущено: США / Informant Media, MICA Entertainment
Жанр: драма, мелодрама, комедия
Год выпуска: 2012
Продолжительность: 01:36:52
Перевод: Любительский (многоголосый закадровый) {Victory Films - перевод Logan Lerman World и Lily Collins Source}
Cубтитры: русские (Notabenoid), английские
Оригинальная аудиодорожка: английский
-Режиссер: Джош Бун / Josh Boone
В ролях: Лили Коллинз, Логан Лерман, Кристен Белл, Дженнифер Коннелли, Стивен Кинг, Нат Вулф, Лиана Либерато, Грег Киннер, Спенсер Бреслин, Патрик Шварценеггер
-Описание: Сюжет фильма сосредоточен на запутанных отношениях между известным новеллистом Биллом Борджес, его бывшей женой и их детьми — дочерью-студенткой Самантой и сыном-тинейджером.- (1 мин)-Тип релиза: BDRip 1080p / Исходник - Stuck.In.Love.2012.1080p.BluRay.AVC.TrueHD.5.1-PublicHD /
Контейнер: MKV
Видео: AVC, 1920x1080 (16:9) at 23.976 fps, AVC at 12 590 kbps avg, 0.248 bit/pixel
Аудио #1: Russian - AC3 Dolby Digital, 3/2 (L,C,R,l,r) + LFE ch, 48 kHz, ~640.00 kbps |MVO, Victory Films|
Аудио #2: English - AC3 Dolby Digital, 3/2 (L,C,R,l,r) + LFE ch, 48 kHz, ~640.00 kbps |Original|
Аудио #3: English - AC3 Dolby Digital, 2/0, 48 kHz, ~192.00 kbps |Commentary|
Формат субтитров: softsub (SRT)
Сохранены оригинальные чаптеры как на Blu-Ray.
За предоставленный материал для дороги выражаю благодарность Андрею Питерскому !
-Автор рипа: (т.е. Я)

MediaInfo

General
Unique ID                                : 226609777798631234324324719097588916736 (0xAA7B74A7237946939B8EAB031F62A200)
Complete name                            : Stuck.In.Love.2012.1080p.BluRay.Electr0man.mkv
Format                                   : Matroska
Format version                           : Version 2
File size                                : 9.52 GiB
Duration                                 : 1h 36mn
Overall bit rate                         : 14.1 Mbps
Movie name                               : BDRip 1080p by Electr0man
Encoded date                             : UTC 2013-12-04 14:59:40
Writing application                      : mkvmerge v5.5.0 ('Healer') built on Apr  6 2012 21:43:24
Writing library                          : libebml v1.2.3 + libmatroska v1.3.0
Video
ID                                       : 1
Format                                   : AVC
Format/Info                              : Advanced Video Codec
Format profile                           : High@L4.1
Format settings, CABAC                   : Yes
Format settings, ReFrames                : 4 frames
Codec ID                                 : V_MPEG4/ISO/AVC
Duration                                 : 1h 36mn
Bit rate                                 : 12.3 Mbps
Width                                    : 1 920 pixels
Height                                   : 1 080 pixels
Display aspect ratio                     : 16:9
Frame rate mode                          : Constant
Frame rate                               : 23.976 fps
Color space                              : YUV
Chroma subsampling                       : 4:2:0
Bit depth                                : 8 bits
Scan type                                : Progressive
Bits/(Pixel*Frame)                       : 0.248
Stream size                              : 8.33 GiB (88%)
Title                                    : Застрял в любви / Stuck in Love (2012)
Writing library                          : x264 core 138 r2358 9e941d1
Encoding settings                        : cabac=1 / ref=4 / deblock=1:-3:-3 / analyse=0x3:0x133 / me=tesa / subme=11 / psy=1 / psy_rd=1.05:0.00 / mixed_ref=1 / me_range=32 / chroma_me=1 / trellis=2 / 8x8dct=1 / cqm=0 / deadzone=21,11 / fast_pskip=0 / chroma_qp_offset=-2 / threads=6 / lookahead_threads=1 / sliced_threads=0 / nr=0 / decimate=1 / interlaced=0 / bluray_compat=0 / constrained_intra=0 / bframes=7 / b_pyramid=2 / b_adapt=2 / b_bias=0 / direct=1 / weightb=1 / open_gop=0 / weightp=2 / keyint=240 / keyint_min=23 / scenecut=40 / intra_refresh=0 / rc_lookahead=60 / rc=crf / mbtree=0 / crf=18.6 / qcomp=0.60 / qpmin=0 / qpmax=69 / qpstep=4 / vbv_maxrate=62500 / vbv_bufsize=78125 / crf_max=0.0 / nal_hrd=none / ip_ratio=1.30 / pb_ratio=1.20 / aq=2:1.00
Language                                 : English
Default                                  : Yes
Forced                                   : No
Audio #1
ID                                       : 2
Format                                   : AC-3
Format/Info                              : Audio Coding 3
Mode extension                           : CM (complete main)
Format settings, Endianness              : Big
Codec ID                                 : A_AC3
Duration                                 : 1h 36mn
Bit rate mode                            : Constant
Bit rate                                 : 640 Kbps
Channel count                            : 6 channels
Channel positions                        : Front: L C R, Side: L R, LFE
Sampling rate                            : 48.0 KHz
Bit depth                                : 16 bits
Compression mode                         : Lossy
Stream size                              : 443 MiB (5%)
Title                                    : MVO [Victory Films]
Language                                 : Russian
Default                                  : Yes
Forced                                   : No
Audio #2
ID                                       : 3
Format                                   : AC-3
Format/Info                              : Audio Coding 3
Mode extension                           : CM (complete main)
Format settings, Endianness              : Big
Codec ID                                 : A_AC3
Duration                                 : 1h 36mn
Bit rate mode                            : Constant
Bit rate                                 : 640 Kbps
Channel count                            : 6 channels
Channel positions                        : Front: L C R, Side: L R, LFE
Sampling rate                            : 48.0 KHz
Bit depth                                : 16 bits
Compression mode                         : Lossy
Stream size                              : 443 MiB (5%)
Language                                 : English
Default                                  : No
Forced                                   : No
Audio #3
ID                                       : 4
Format                                   : AC-3
Format/Info                              : Audio Coding 3
Mode extension                           : CM (complete main)
Format settings, Endianness              : Big
Codec ID                                 : A_AC3
Duration                                 : 1h 36mn
Bit rate mode                            : Constant
Bit rate                                 : 192 Kbps
Channel count                            : 2 channels
Channel positions                        : Front: L R
Sampling rate                            : 48.0 KHz
Bit depth                                : 16 bits
Compression mode                         : Lossy
Stream size                              : 133 MiB (1%)
Title                                    : Commentary
Language                                 : English
Default                                  : No
Forced                                   : No
Text #1
ID                                       : 5
Format                                   : UTF-8
Codec ID                                 : S_TEXT/UTF8
Codec ID/Info                            : UTF-8 Plain Text
Title                                    : Notabenoid
Language                                 : Russian
Default                                  : No
Forced                                   : No
Text #2
ID                                       : 6
Format                                   : UTF-8
Codec ID                                 : S_TEXT/UTF8
Codec ID/Info                            : UTF-8 Plain Text
Language                                 : English
Default                                  : No
Forced                                   : No
Menu
00:00:00.000                             : en:00:00:00.000
00:07:22.275                             : en:00:07:22.275
00:16:54.305                             : en:00:16:54.305
00:26:52.694                             : en:00:26:52.694
00:34:54.968                             : en:00:34:54.968
00:41:26.859                             : en:00:41:26.859
00:50:32.196                             : en:00:50:32.196
00:57:48.632                             : en:00:57:48.632
01:08:03.663                             : en:01:08:03.663
01:15:57.303                             : en:01:15:57.303
01:25:54.608                             : en:01:25:54.608
01:32:44.684                             : en:01:32:44.684

x264

raw [info]: 1920x1080p 1:1 @ 24000/1001 fps (cfr)
x264 [info]: using SAR=1/1
x264 [info]: using cpu capabilities: MMX2 SSE2Fast SSSE3 SSE4.2 AVX
x264 [info]: profile High, level 4.1
x264 [info]: frame I:1139  Avg QP:16.08  size:192667
x264 [info]: frame P:33568 Avg QP:16.80  size: 97352
x264 [info]: frame B:104660 Avg QP:17.98  size: 54087
x264 [info]: consecutive B-frames:  1.3%  2.1% 23.5% 23.0% 21.4% 26.8%  1.5%  0.5%
x264 [info]: mb I  I16..4:  2.3% 94.4%  3.3%
x264 [info]: mb P  I16..4:  1.3% 47.1%  0.5%  P16..4: 22.0% 17.0%  6.2%  0.5%  0.0%    skip: 5.3%
x264 [info]: mb B  I16..4:  0.8% 22.2%  0.1%  B16..8: 26.6% 12.2%  2.1%  direct: 7.7%  skip:28.2%  L0:39.0% L1:40.9% BI:20.2%
x264 [info]: 8x8 transform intra:96.1% inter:74.0%
x264 [info]: coded y,uvDC,uvAC intra: 82.7% 89.9% 72.5% inter: 26.9% 29.1% 6.1%
x264 [info]: i16 v,h,dc,p: 28% 18% 18% 36%
x264 [info]: i8 v,h,dc,ddl,ddr,vr,hd,vl,hu: 17% 12% 35%  5%  5%  7%  5%  7%  7%
x264 [info]: i4 v,h,dc,ddl,ddr,vr,hd,vl,hu: 26% 14% 23%  5%  8%  8%  6%  5%  4%
x264 [info]: i8c dc,h,v,p: 54% 19% 16% 11%
x264 [info]: Weighted P-Frames: Y:1.1% UV:0.7%
x264 [info]: ref P L0: 54.6%  9.3% 25.7%  8.2%  2.2%  0.0%
x264 [info]: ref B L0: 85.3% 12.0%  2.7%
x264 [info]: ref B L1: 90.8%  9.2%
x264 [info]: kb/s:12590.37
encoded 139367 frames, 1.33 fps, 12590.37 kb/s

Скриншоты





Скачать

Скачать торрент!

Как скачивать? · Что такое торрент? · Рейтинг и ограничения

Сайт не распространяет и не хранит электронные версии произведений, а лишь предоставляет доступ к создаваемому пользователями каталогу ссылок на торрент-файлы, которые содержат только списки хеш-сумм

[Профиль] [ЛС]
Показать сообщения:    
Ответить на тему

Текущее время: Сегодня 20:15

Часовой пояс: GMT + 4



Вы не можете начинать темы
Вы не можете отвечать на сообщения
Вы не можете редактировать свои сообщения
Вы не можете удалять свои сообщения
Вы не можете голосовать в опросах
Вы не можете прикреплять файлы к сообщениям
Вы не можете скачивать файлы