Чудаки: Несносный дед / Jackass Presents: Bad Grandpa (Джефф Треймейн / Jeff Tremaine) [2013, США, Комедия, TeleSynch] VO (Magnum)

Ответить на тему
 
Автор Сообщение

user ®

Стаж: 7 лет 7 месяцев

Сообщений: 20008

Пост Пост: #1 от 04-Дек-2013 20:00

[Цитировать]

Чудаки: Несносный дед / Jackass Presents: Bad Grandpa
Страна: США
Жанр: Комедия
Год выпуска: 2013
Продолжительность: 01:31:27
Перевод: Одноголосый закадровый Magnum
Cубтитры: нет
Оригинальная аудиодорожка: нет
Режиссер: Джефф Треймейн / Jeff Tremaine
В ролях: Джонни Ноксвилл, Джексон Николл, Фил Марджера.
Описание: 86-летний старикан по имени Ирвинг Зисман путешествует по Америке с необычным компаньоном — восьмилетним «внуком» Билли.
По дороге заводной дедушка знакомит впечатлительного Билли с людьми, местами и ситуациями, которые вряд ли укладываются в рамки привычных представлений о воспитании. Парочка столкнется со стриптизерами, разъяренными участниками помпезного детского конкурса красоты и их не менее злыми мамашами, скорбящими посетителями панихиды, завсегдатаями бара для байкеров и другими ничего не подозревающими гражданами США.
Доп. информация: Спасибо огромное Zelesk, за помощь в переводе!
Сэмпл: http://multi-up.com/929334
Качество видео: TeleSynch
Формат видео: MKV
Видео: AVC; 624x336; 29.970 fps; 1369 Kbps
Аудио: AC-3; 44.1 KHz; 448 Kbps; 6 ch

MediaInfo

General
Format : Matroska
Format version : Version 2
File size : 1.18 GiB
Duration : 1h 31mn
Overall bit rate : 1 854 Kbps
Encoded date : UTC 2013-12-03 15:15:36
Writing application : mkvmerge v4.2.0 ('No Talking') сборка от Jul 28 2010 18:38:23
Writing library : libebml v1.0.0 + libmatroska v1.0.0
Video #1
ID : 1
Format : AVC
Format/Info : Advanced Video Codec
Format profile : Main@L3.0
Format settings, CABAC : Yes
Format settings, ReFrames : 1 frame
Muxing mode : Header stripping
Codec ID : V_MPEG4/ISO/AVC
Duration : 1h 31mn
Bit rate : 1 369 Kbps
Width : 624 pixels
Height : 336 pixels
Display aspect ratio : 1.85:1
Frame rate mode : Constant
Frame rate : 29.970 fps
Original frame rate : 30.000 fps
Color space : YUV
Chroma subsampling : 4:2:0
Bit depth : 8 bits
Scan type : Progressive
Bits/(Pixel*Frame) : 0.218
Stream size : 895 MiB (74%)
Default : Yes
Forced : No
Audio #2
ID : 2
Format : AC-3
Format/Info : Audio Coding 3
Mode extension : CM (complete main)
Format settings, Endianness : Big
Muxing mode : Header stripping
Codec ID : A_AC3
Duration : 1h 31mn
Bit rate mode : Constant
Bit rate : 448 Kbps
Channel(s) : 6 channels
Channel positions : Front: L C R, Side: L R, LFE
Sampling rate : 44.1 KHz
Bit depth : 16 bits
Compression mode : Lossy
Stream size : 293 MiB (24%)
Default : Yes
Forced : No

Скриншот c названием фильма

Скриншоты



Скачать

Скачать торрент!

Как скачивать? · Что такое торрент? · Рейтинг и ограничения

Сайт не распространяет и не хранит электронные версии произведений, а лишь предоставляет доступ к создаваемому пользователями каталогу ссылок на торрент-файлы, которые содержат только списки хеш-сумм

[Профиль] [ЛС]
Показать сообщения:    
Ответить на тему

Текущее время: Сегодня 12:48

Часовой пояс: GMT + 4



Вы не можете начинать темы
Вы не можете отвечать на сообщения
Вы не можете редактировать свои сообщения
Вы не можете удалять свои сообщения
Вы не можете голосовать в опросах
Вы не можете прикреплять файлы к сообщениям
Вы не можете скачивать файлы