Собутыльники / Drinking Buddies (Джо Сванберг / Joe Swanberg) [2013, США, драма, мелодрама, комедия, HDRip-AVC] VO [VANO] + Original (Eng) + Subs (Rus, Eng)

Ответить на тему
 
Автор Сообщение

user ®

Стаж: 7 лет 7 месяцев

Сообщений: 20008

Пост Пост: #1 от 04-Дек-2013 16:50

[Цитировать]

СобутыльникиDrinking Buddies«A comedy about knowing when to say when»- Страна: США
Жанр: драма, мелодрама, комедия
Год выпуска: 2013
Продолжительность: 01:30:22-Перевод: Одноголосый закадровый [VANO]
Оригинальная аудиодорожка: английский
Субтитры: русские, английские
Режиссер: Джо Сванберг / Joe Swanberg
В ролях: Оливия Уайлд, Джейк Джонсон, Анна Кендрик, Рон Ливингстон, Тай Уэст, Джейсон Судейкис, Майк Брюн, Фрэнк В. Росс, Майкл Гертнер, Кристин Дэвис, Jim Cibak, Алисия Ван Куверинг-Описание: Люк и Кейт сотрудники чикагского пивоваренного завода, где они проводят свои дни, выпивая и флиртуя. Они идеально подходят друг другу, но вот только они оба уже состоят в отношениях...-


MPAA: R - Лицам до 17 лет обязательно присутствие взрослого-

Доп. Информация

Сценарий: Джо Сванберг / Joe Swanberg
Продюсер: Джо Сванберг / Joe Swanberg, Алисия Ван Куверинг / Alicia Van Couvering, Пол Бернон / Paul Bernon, Андреа Роа / Andrea Roa, Сэм Слэйтер / Sam Slater
Оператор: Бен Ричардсон / Ben Richardson
Сборы в США: $343 341
Мировая премьера: 13 марта 2013
Релиз на DVD: 4 февраля 2014, «Columbia/Sony»
-Качество: HDRip-AVC (Исходник BDRip (1080p))
Контейнер: MKV
Видео: AVC, 1024x434 (2.35:1), 1520 kbps, 23,976 fps, 0,143 bpp
Аудио №1: русский / AC3 / 5.1 / 48 kHz / 384 kbps / 16 bit ||
Аудио №2: английский / AC3 / 5.1 / 48 kHz / 384 kbps / 16 bit
Формат субтитров: softsub (SRT)-

Media Info

General
Unique ID : 240159739397360569559359458177476875171 (0xB4AD1556B2C4359A8B9DBE70191A53A3)
Complete name : G:\Drinking.Buddies.2013.BDRip-AVC.x264.mkv
Format : Matroska
Format version : Version 2
File size : 1.45 GiB
Duration : 1h 30mn
Overall bit rate : 2 290 Kbps
Encoded date : UTC 2013-12-03 19:25:53
Writing application : mkvmerge v5.8.0 ('No Sleep / Pillow') built on Sep 2 2012 15:37:04
Writing library : libebml v1.2.3 + libmatroska v1.3.0
Video
ID : 1
Format : AVC
Format/Info : Advanced Video Codec
Format profile : High@L4.1
Format settings, CABAC : Yes
Format settings, ReFrames : 12 frames
Codec ID : V_MPEG4/ISO/AVC
Duration : 1h 30mn
Bit rate : 1 520 Kbps
Width : 1 024 pixels
Height : 434 pixels
Display aspect ratio : 2.35:1
Frame rate : 23.976 fps
Color space : YUV
Chroma subsampling : 4:2:0
Bit depth : 8 bits
Scan type : Progressive
Bits/(Pixel*Frame) : 0.143
Stream size : 954 MiB (64%)
Writing library : x264 core 138 r2358 9e941d1
Encoding settings : cabac=1 / ref=12 / deblock=1:-2:-2 / analyse=0x3:0x113 / me=umh / subme=9 / psy=1 / psy_rd=1.00:0.15 / mixed_ref=1 / me_range=36 / chroma_me=1 / trellis=2 / 8x8dct=1 / cqm=0 / deadzone=21,11 / fast_pskip=1 / chroma_qp_offset=-3 / threads=12 / lookahead_threads=3 / sliced_threads=0 / nr=0 / decimate=1 / interlaced=0 / bluray_compat=0 / constrained_intra=0 / bframes=12 / b_pyramid=2 / b_adapt=2 / b_bias=0 / direct=3 / weightb=1 / open_gop=0 / weightp=2 / keyint=250 / keyint_min=24 / scenecut=40 / intra_refresh=0 / rc_lookahead=40 / rc=2pass / mbtree=0 / bitrate=1520 / ratetol=1.0 / qcomp=0.60 / qpmin=0 / qpmax=69 / qpstep=4 / cplxblur=20.0 / qblur=0.5 / vbv_maxrate=50000 / vbv_bufsize=62500 / nal_hrd=none / ip_ratio=1.40 / pb_ratio=1.30 / aq=2:1.00
Language : English
Default : Yes
Forced : No
Audio #1
ID : 2
Format : AC-3
Format/Info : Audio Coding 3
Mode extension : CM (complete main)
Codec ID : A_AC3
Duration : 1h 30mn
Bit rate mode : Constant
Bit rate : 384 Kbps
Channel(s) : 6 channels
Channel positions : Front: L C R, Side: L R, LFE
Sampling rate : 48.0 KHz
Bit depth : 16 bits
Compression mode : Lossy
Stream size : 248 MiB (17%)
Title : Любительский одноголосый
Language : Russian
Default : Yes
Forced : No
Audio #2
ID : 3
Format : AC-3
Format/Info : Audio Coding 3
Mode extension : CM (complete main)
Codec ID : A_AC3
Duration : 1h 30mn
Bit rate mode : Constant
Bit rate : 384 Kbps
Channel(s) : 6 channels
Channel positions : Front: L C R, Side: L R, LFE
Sampling rate : 48.0 KHz
Bit depth : 16 bits
Compression mode : Lossy
Stream size : 248 MiB (17%)
Title : English
Language : English
Default : No
Forced : No
Text #1
ID : 4
Format : UTF-8
Codec ID : S_TEXT/UTF8
Codec ID/Info : UTF-8 Plain Text
Language : Russian
Default : No
Forced : No
Text #2
ID : 5
Format : UTF-8
Codec ID : S_TEXT/UTF8
Codec ID/Info : UTF-8 Plain Text
Language : English
Default : No
Forced : No

х264

raw [info]: 1024x434p 1:1 @ 24000/1001 fps (cfr)
x264 [info]: using SAR=1/1
x264 [info]: using cpu capabilities: MMX2 SSE2Fast SSSE3 SSE4.2 AVX
x264 [info]: profile High, level 4.1
x264 [info]: frame I:643 Avg QP:16.59 size: 60565
x264 [info]: frame P:32283 Avg QP:19.08 size: 15614
x264 [info]: frame B:97090 Avg QP:20.69 size: 5019
x264 [info]: consecutive B-frames: 3.1% 4.5% 10.0% 32.1% 14.8% 30.0% 3.3% 1.4% 0.3% 0.1% 0.1% 0.1% 0.3%
x264 [info]: mb I I16..4: 9.4% 68.7% 22.0%
x264 [info]: mb P I16..4: 1.6% 9.1% 1.5% P16..4: 40.5% 20.7% 11.5% 0.0% 0.0% skip:15.1%
x264 [info]: mb B I16..4: 0.1% 0.8% 0.1% B16..8: 39.0% 8.5% 1.9% direct: 5.1% skip:44.4% L0:41.3% L1:48.1% BI:10.5%
x264 [info]: 8x8 transform intra:74.1% inter:65.3%
x264 [info]: direct mvs spatial:97.9% temporal:2.1%
x264 [info]: coded y,uvDC,uvAC intra: 76.4% 79.1% 49.9% inter: 19.8% 27.4% 3.2%
x264 [info]: i16 v,h,dc,p: 40% 14% 11% 35%
x264 [info]: i8 v,h,dc,ddl,ddr,vr,hd,vl,hu: 24% 9% 8% 7% 10% 12% 10% 10% 10%
x264 [info]: i4 v,h,dc,ddl,ddr,vr,hd,vl,hu: 31% 8% 4% 6% 11% 11% 10% 8% 9%
x264 [info]: i8c dc,h,v,p: 38% 23% 25% 14%
x264 [info]: Weighted P-Frames: Y:1.0% UV:0.5%
x264 [info]: ref P L0: 48.9% 11.1% 16.7% 5.0% 4.7% 3.1% 3.1% 1.5% 1.6% 1.3% 1.4% 1.2% 0.2% 0.0%
x264 [info]: ref B L0: 75.3% 11.0% 4.8% 2.5% 1.7% 1.5% 1.2% 0.8% 0.6% 0.4% 0.2%
x264 [info]: ref B L1: 93.9% 6.1%
x264 [info]: kb/s:1519.89
x264 [total]: encoded 130016 frames, 26.12 fps, 1519.89 kb/s

Скриншот с названием фильма

Скриншоты

Скачать

Скачать торрент!

Как скачивать? · Что такое торрент? · Рейтинг и ограничения

Сайт не распространяет и не хранит электронные версии произведений, а лишь предоставляет доступ к создаваемому пользователями каталогу ссылок на торрент-файлы, которые содержат только списки хеш-сумм

[Профиль] [ЛС]
Показать сообщения:    
Ответить на тему

Текущее время: Сегодня 12:07

Часовой пояс: GMT + 4



Вы не можете начинать темы
Вы не можете отвечать на сообщения
Вы не можете редактировать свои сообщения
Вы не можете удалять свои сообщения
Вы не можете голосовать в опросах
Вы не можете прикреплять файлы к сообщениям
Вы не можете скачивать файлы