Это конец / Конец света 2013: Апокалипсис по-голливудски / This Is the End (Сет Роген / Seth Rogen, Ивэн Голдберг / Evan Goldberg) [2013, США, комедия, фэнтези, BDRip-AVC] VO Дмитрий Есарев + Original Eng

Ответить на тему
 
Автор Сообщение

user ®

Стаж: 7 лет 7 месяцев

Сообщений: 20008

Пост Пост: #1 от 04-Дек-2013 16:50

[Цитировать]

Это конец / Конец света 2013: Апокалипсис по-голливудски / This Is the End

Страна: США
Жанр: комедия, фэнтези
Год выпуска: 2013
Продолжительность: 01:46:41
Перевод: Одноголосый закадровый - Дмитрий Есарев
Cубтитры: нет
Оригинальная аудиодорожка: английский
Режиссер: Сет Роген / Seth Rogen, Ивэн Голдберг / Evan Goldberg
В ролях: Сет Роген, Джей Барушель, Джеймс Франко, Джона Хилл, Крэйг Робинсон, Дэнни МакБрайд, Майкл Сера, Эмма Уотсон, Ченнинг Татум, Кристофер Минц-Плассе, Рианна, Пол Радд, Минди Калинг, Дэвид Крамхолц, Мартин Старр, Кевин Харт и др.
Описание:
Джей Барушель приезжает в Лос-Анджелес, чтобы посетить старого друга и коллегу, актера Сета Рогена, который пригласил Барушеля на новоселье, которое организовывает Джеймс Франко. На не очень приличную вечеринку приехали многие знаменитости. Барушелю неудобно среди такого количества людей, он практически не знает лично таких знаменитостей, как: Джона Хилл, Кристофер Минц-Плассе, Майкл Сера, Крейг Робинсон, Эмма Уотсон и Ченнинг Татум. Роген, чтобы немного успокоить друга, сопровождает его в магазин за сигаретами.
В магазине лучи синего света с неба вдруг унесли несколько покупателей. Перепуганные Роген и Барушель бегут в дом Франко на фоне взрывов, автомобильных аварий, а также массового хаоса, но на вечеринке синие лучи никого не тронули. Подвыпившие гости не верят россказням Барушеля и объявляют его сумасшедшим, но через несколько секунд слышат снаружи грохот…
Доп. информация:
Перевод состоялся при участии "Переулка Переводмана" спонсоры: Goodfella86, dikii, Rustam.
Работа со звуком Perevodman.

Файл:
Качество видео: BDRip-AVC.
Формат видео: MKV
Видео: 1130x472 (2.40:1), 23.976 fps, 2032 Кbps, 0.159 bit/pixel
Аудио 1: 48 kHz, AC3 Dolby Digital, 3/2 (L,C,R,l,r) + LFE ch, ~448 kbps - Есарев
Аудио 2: 48 kHz, AC3 Dolby Digital, 3/2 (L,C,R,l,r) + LFE ch, ~448 kbps - Eng

MediaInfo

Общее
Уникальный идентификатор : 185688680890322638418182321858096991453 (0x8BB256CE57CCC3AD8CEF4B88C8B10CDD)
Формат : Matroska
Версия формата : Version 2
Размер файла : 2,18 Гбайт
Продолжительность : 1 ч. 46 м.
Общий поток : 2930 Кбит/сек
Название фильма : This Is The End (2013) encoded by ed_rez
Дата кодирования : UTC 2013-12-04 05:32:42
Программа кодирования : mkvmerge v2.9.7 ('Tenderness') built on Jul 1 2009 18:43:35
Библиотека кодирования : libebml v0.7.7 + libmatroska v0.8.1
Видео
Идентификатор : 1
Формат : AVC
Формат/Информация : Advanced Video Codec
Профиль формата : High@L4.1
Параметр CABAC формата : Да
Параметр ReFrames формата : 14 кадров
Идентификатор кодека : V_MPEG4/ISO/AVC
Продолжительность : 1 ч. 46 м.
Битрейт : 2032 Кбит/сек
Ширина : 1130 пикселей
Высота : 472 пикселя
Соотношение сторон : 2,40:1
Режим частоты кадров : Постоянный
Частота кадров : 23,976 кадра/сек
Цветовое пространство : YUV
Субдискретизация насыщенности : 4:2:0
Битовая глубина : 8 бит
Тип развёртки : Прогрессивная
Бит/(Пиксели*Кадры) : 0.159
Размер потока : 1,47 Гбайт (67%)
Заголовок : This Is The End (2013)
Библиотека кодирования : x264 core 133 r2334 a3ac64b
Настройки программы : cabac=1 / ref=14 / deblock=1:-2:-1 / analyse=0x3:0x113 / me=umh / subme=10 / psy=1 / psy_rd=1.05:0.05 / mixed_ref=1 / me_range=32 / chroma_me=1 / trellis=2 / 8x8dct=1 / cqm=0 / deadzone=21,11 / fast_pskip=0 / chroma_qp_offset=-3 / threads=12 / lookahead_threads=3 / sliced_threads=0 / nr=0 / decimate=0 / interlaced=0 / bluray_compat=0 / constrained_intra=0 / bframes=11 / b_pyramid=2 / b_adapt=2 / b_bias=0 / direct=3 / weightb=1 / open_gop=0 / weightp=2 / keyint=240 / keyint_min=23 / scenecut=40 / intra_refresh=0 / rc_lookahead=80 / rc=2pass / mbtree=0 / bitrate=2032 / ratetol=1.0 / qcomp=0.70 / qpmin=0 / qpmax=69 / qpstep=4 / cplxblur=20.0 / qblur=0.5 / vbv_maxrate=24000 / vbv_bufsize=26000 / nal_hrd=none / ip_ratio=1.40 / pb_ratio=1.30 / aq=2:0.80
Язык : English
Default : Да
Forced : Нет
Основные цвета : BT.709
Характеристики трансфера : BT.709
Коэффициенты матрицы : BT.709
Аудио #1
Идентификатор : 2
Формат : AC-3
Формат/Информация : Audio Coding 3
Расширение режима : CM (complete main)
Параметр Endianness формата : Big
Идентификатор кодека : A_AC3
Продолжительность : 1 ч. 46 м.
Вид битрейта : Постоянный
Битрейт : 448 Кбит/сек
Каналы : 6 каналов
Расположение каналов : Front: L C R, Side: L R, LFE
Частота : 48,0 КГц
Битовая глубина : 16 бит
Метод сжатия : С потерями
Размер потока : 342 Мбайт (15%)
Заголовок : AVO Дмитрий Есарев
Язык : Russian
Default : Да
Forced : Нет
Аудио #2
Идентификатор : 3
Формат : AC-3
Формат/Информация : Audio Coding 3
Расширение режима : CM (complete main)
Параметр Endianness формата : Big
Идентификатор кодека : A_AC3
Продолжительность : 1 ч. 46 м.
Вид битрейта : Постоянный
Битрейт : 448 Кбит/сек
Каналы : 6 каналов
Расположение каналов : Front: L C R, Side: L R, LFE
Частота : 48,0 КГц
Битовая глубина : 16 бит
Метод сжатия : С потерями
Размер потока : 342 Мбайт (15%)
Заголовок : Оригинал
Язык : English
Default : Нет
Forced : Нет

Скриншот c названием фильма

Скриншоты

Скачать

Скачать торрент!

Как скачивать? · Что такое торрент? · Рейтинг и ограничения

Сайт не распространяет и не хранит электронные версии произведений, а лишь предоставляет доступ к создаваемому пользователями каталогу ссылок на торрент-файлы, которые содержат только списки хеш-сумм

[Профиль] [ЛС]
Показать сообщения:    
Ответить на тему

Текущее время: Сегодня 00:34

Часовой пояс: GMT + 4



Вы не можете начинать темы
Вы не можете отвечать на сообщения
Вы не можете редактировать свои сообщения
Вы не можете удалять свои сообщения
Вы не можете голосовать в опросах
Вы не можете прикреплять файлы к сообщениям
Вы не можете скачивать файлы