Страсти Дон Жуана / Don Jon (Джозеф Гордон-Левитт / Joseph Gordon-Levitt) [2013, США, комедия, мелодрама, BDRip] Dub

Ответить на тему
 
Автор Сообщение

user ®

Стаж: 7 лет 7 месяцев

Сообщений: 20008

Пост Пост: #1 от 04-Дек-2013 16:50

[Цитировать]

Страсти Дон ЖуанаDon Jon«В этой жизни меня заботит всего несколько вещей: мое тело, мой дом, моя тачка, мои друзья, мои телки и… порнуха»- Страна: США
Жанр: комедия, мелодрама
Год выпуска: 2013
Продолжительность: 01:26:13-Перевод: Профессиональный (полное дублирование) [Лицензия]
Субтитры: нет
Режиссер: Джозеф Гордон-Левитт / Joseph Gordon-Levitt
В ролях: Джозеф Гордон-Левитт, Скарлетт Йоханссон, Джулианна Мур, Тони Данца, Гленн Хедли, Бри Ларсон, Роб Браун, Джереми Люк, Пол Бен-Виктор, Италиа Риччи, Линдси Броад, Аманда Перез-Описание: Комичная история современного ловеласа, который из каждого любовного приключения вынужден спасаться бегством. Он еще не знает, что недалек тот час, когда ему все-таки придется остепениться...-


MPAA: R - Лицам до 17 лет обязательно присутствие взрослого-

Доп. Информация

Сценарий: Джозеф Гордон-Левитт / Joseph Gordon-Levitt
Продюсер: Рэм Бергман / Ram Bergman, Николя Картье / Nicolas Chartier, Джефф Фрэнкс / Jeff Franks, Брюс Уэйн Гиллис / Bruce Wayne Gillies, Никос Карамагиос / Nikos Karamigios
Оператор: Томас Клосс / Thomas Kloss
Композитор: Нэйтан Джонсон / Nathan Johnson
Бюджет: $6 000 000
Сборы в США: $24 299 641
Сборы в России: $1 986 757
Сборы в мире: $30 272 693
Мировая премьера: 18 января 2013
Релиз на DVD: 26 ноября 2013,
«Парадиз / Активижен»

Релиз на Blu-ray: 10 декабря 2013,
«Парадиз / Активижен»
-Качество: BDRip [Рип с Blu-Ray Disc]
Контейнер: AVI
Видео: XviD, 720x304 (2.35:1), 1812 kbps, 25 fps, 0,331 bpp
Аудио: AC3 / 5.1 / 48 kHz / 448 kbps / 16 bit-

Знаете ли Вы, что...

  • Версия фильма, которая была показана на фестивале «Сандэнс» в 2013 году, получила рейтинг NC-17. Режиссер Джозеф Гордон-Левитт вырезал из финальной версии некоторые кадры с порно, которое его герой смотрит на протяжении всего фильма. Он решил это сделать, чтобы люди не думали, будто этот фильм только о порнографии.
  • Этот фильм стал режиссерским дебютом Джозефа Гордона-Левитта.
  • Джозеф Гордон-Левитт написал роль специально для Скарлетт Йоханссон и был очень рад, когда она согласилась сняться в фильме.
  • Джозеф Гордон-Левитт и Тони Данца ранее работали вместе в фильме «Ангелы у кромки поля» (1994). Тогда Левитту было всего 12 лет.
  • еще 1 факт

Сравнение

Сравнение с [url=http://***/forum/viewtopic.php?t=4590185]http://***/forum/viewtopic.php?t=4590185[/url]
http://screenshotcomparison.com/comparison/51302

Media Info

General
Complete name : G:\Strasti.Don.Juana.2013.D.BDRip_1400MB.avi
Format : AVI
Format/Info : Audio Video Interleave
File size : 1.37 GiB
Duration : 1h 26mn
Overall bit rate : 2 270 Kbps
Writing application : VirtualDubMod 1.5.10.2 (build 2540/release)
Writing library : VirtualDubMod build 2540/release
Video
ID : 0
Format : MPEG-4 Visual
Format profile : Advanced Simple@L5
Format settings, BVOP : 2
Format settings, QPel : No
Format settings, GMC : No warppoints
Format settings, Matrix : Custom
Codec ID : XVID
Codec ID/Hint : XviD
Duration : 1h 26mn
Bit rate : 1 813 Kbps
Width : 720 pixels
Height : 304 pixels
Display aspect ratio : 2.35:1
Frame rate : 25.000 fps
Color space : YUV
Chroma subsampling : 4:2:0
Bit depth : 8 bits
Scan type : Progressive
Compression mode : Lossy
Bits/(Pixel*Frame) : 0.331
Stream size : 1.09 GiB (80%)
Writing library : XviD 1.2.1 (UTC 2008-12-04)
Audio
ID : 1
Format : AC-3
Format/Info : Audio Coding 3
Mode extension : CM (complete main)
Codec ID : 2000
Duration : 1h 26mn
Bit rate mode : Constant
Bit rate : 448 Kbps
Channel(s) : 6 channels
Channel positions : Front: L C R, Side: L R, LFE
Sampling rate : 48.0 KHz
Bit depth : 16 bits
Compression mode : Lossy
Stream size : 276 MiB (20%)
Alignment : Split accross interleaves
Interleave, duration : 40 ms (1.00 video frame)
Interleave, preload duration : 500 ms

Скриншот с названием фильма

Скриншоты

Скачать

Скачать торрент!

Как скачивать? · Что такое торрент? · Рейтинг и ограничения

Сайт не распространяет и не хранит электронные версии произведений, а лишь предоставляет доступ к создаваемому пользователями каталогу ссылок на торрент-файлы, которые содержат только списки хеш-сумм

[Профиль] [ЛС]
Показать сообщения:    
Ответить на тему

Текущее время: Сегодня 11:57

Часовой пояс: GMT + 4



Вы не можете начинать темы
Вы не можете отвечать на сообщения
Вы не можете редактировать свои сообщения
Вы не можете удалять свои сообщения
Вы не можете голосовать в опросах
Вы не можете прикреплять файлы к сообщениям
Вы не можете скачивать файлы