Удивительные приключения живого трупа / The Amazing Adventures Of The Living Corpse (Джастин Пол Риттер/Justin Paul Ritter) [2012, Ужасы, боевик, DVDRip] Dub

Ответить на тему
 
Автор Сообщение

user ®

Стаж: 11 лет

Сообщений: 15145

Пост Пост: #1 от 04-Дек-2013 01:40

[Цитировать]

Удивительные приключения живого трупа / The Amazing Adventures Of The Living Corpse
Страна: США
Жанр: Ужасы, боевик
Продолжительность: 01:27:53
Год выпуска: 2012
Перевод: Любительский (дублированный)
Русские субтитры: нет
Режиссёр: Джастин Пол Риттер/Justin Paul Ritter
Роли озвучивали: Маршал Хилтон, Ли Перкинс, Мария Олсен, Конро Брукс, Макс Молион, Бен Л. МакКейн, Райан МакГайверн, Майкл Виллар, Клодин Клаудио
Описание: Познакомьтесь с Джоном Ромеро, разлагающимся трупом, наделенным совестью и раскаянием, который в порыве первого голода инфицировал собственную жену и убил свою маленькую дочь. Но теперь упрямому пожирателю мозгов придется с боем прорываться через зловещих демонов ада, чтобы спасти своего уцелевшего сына от ужасов мира живых. Приготовьтесь к приключению, полному отрывания рук и хруста плоти, основанному на инди-комиксах Кена Хейзера и База Хэссона.
Семпл: http://multi-up.com/929150
Качество: DVDRip
Формат: AVI
Видео: 720x400 (1.80:1), 23.976 fps, XviD build 73, 1976 kbps avg, 0.29 bit/pixel
Аудио: 44.1 kHz, AC3 Dolby Digital, 2/0 (L,R) ch, 192 kbps (Дублированный)
Аудио 2: 44.1 kHz, AC3 Dolby Digital, 2/0 (L,R) ch, 192 kbps (Английский)
Субтитры: Отсутствуют

Подробные технические данные

Zhivoj.Trup.avi General Complete name : E:\Удивительные приключения живого трупа\Zhivoj.Trup.avi Format : AVI Format/Info : Audio Video Interleave File size : 1.46 GiB Duration : 1h 27mn Overall bit rate : 2 375 Kbps Writing application : VirtualDubMod 1.5.10.3 | www.virtualdub-fr.org || (build 2550/release) Writing library : VirtualDubMod build 2550/release Video #0 ID : 0 Format : MPEG-4 Visual Format profile : Advanced Simple@L5 Format settings, BVOP : 1 Format settings, QPel : No Format settings, GMC : No warppoints Format settings, Matrix : Custom Codec ID : XVID Codec ID/Hint : XviD Duration : 1h 27mn Bit rate : 1 977 Kbps Width : 720 pixels Height : 400 pixels Display aspect ratio : 16:9 Frame rate : 23.976 fps Color space : YUV Chroma subsampling : 4:2:0 Bit depth : 8 bits Scan type : Progressive Compression mode : Lossy Bits/(Pixel*Frame) : 0.286 Stream size : 1.21 GiB (83%) Writing library : XviD 73 Audio #1 ID : 1 Format : AC-3 Format/Info : Audio Coding 3 Mode extension : CM (complete main) Codec ID : 2000 Duration : 1h 27mn Bit rate mode : Constant Bit rate : 192 Kbps Channel(s) : 2 channels Channel positions : Front: L R Sampling rate : 44.1 KHz Bit depth : 16 bits Compression mode : Lossy Stream size : 121 MiB (8%) Alignment : Split accross interleaves Interleave, duration : 42 ms (1.00 video frame) Interleave, preload duration : 500 ms Audio #2 ID : 2 Format : AC-3 Format/Info : Audio Coding 3 Mode extension : CM (complete main) Codec ID : 2000 Duration : 1h 27mn Bit rate mode : Constant Bit rate : 192 Kbps Channel(s) : 2 channels Channel positions : Front: L R Sampling rate : 48.0 KHz Bit depth : 16 bits Compression mode : Lossy Stream size : 121 MiB (8%) Alignment : Split accross interleaves Interleave, duration : 42 ms (1.00 video frame) Interleave, preload duration : 500 ms

Скриншоты

Скачать

Скачать торрент! Удивительные приключения живого трупа / The Amazing Adventures Of The Living Corpse (Джастин Пол Риттер/Justin Paul Ritter) [2012, Ужасы, боевик, DVDRip] Dub

Как скачивать? · Что такое торрент? · Рейтинг и ограничения

Сайт не распространяет и не хранит электронные версии произведений, а лишь предоставляет доступ к создаваемому пользователями каталогу ссылок на торрент-файлы, которые содержат только списки хеш-сумм

[Профиль] [ЛС]
Показать сообщения:    
Ответить на тему

Текущее время: Сегодня 19:38

Часовой пояс: GMT + 4



Вы не можете начинать темы
Вы не можете отвечать на сообщения
Вы не можете редактировать свои сообщения
Вы не можете удалять свои сообщения
Вы не можете голосовать в опросах
Вы не можете прикреплять файлы к сообщениям
Вы не можете скачивать файлы