9 рота (Фёдор Бондарчук) [2005, Россия, Украина, Финляндия, боевик, драма, военный, BDRip 1080p]

Ответить на тему
 
Автор Сообщение

user ®

Стаж: 7 лет 7 месяцев

Сообщений: 20008

Пост Пост: #1 от 04-Дек-2013 01:40

[Цитировать]

9 рота- Год выпуска: 2005
Страна: Россия, Украина, Финляндия
Жанр: боевик, драма, военный
Продолжительность: 02:19:13
Cубтитры: Русские, English-Режиссер: Фёдор Бондарчук
В ролях: Фёдор Бондарчук, Алексей Чадов, Иван Кокорин, Артем Михалков, Константин Крюков, Артур Смольянинов, Михаил Пореченков, Ирина Рахманова, Алексей Серебряков, Михаил Ефремов
О фильме: СССР. Действие происходит в 1988 и 1989 годах, за несколько месяцев до полного вывода советских войск из Афганистана. Семеро призывников, после нескольких месяцев адской подготовки в «учебке» под командованием беспощадного старшины, попадают в горнило афганской кампании.
Группа десантников, бойцами которой стали наши герои, получает задание командования - занять высоту и держать ее до прохождения колонны...-Релиз:
Формат: MKV
Видео: 1920x774 at 23.976 fps, x264@L4.1, crf, ~15400 kbps avg
Аудио: 48 kHz/16-bit, DTS, 3/2 (L,C,R,l,r) + LFE ch, ~1536.00 kbps avg
Семпл-

-

mInfo


Формат : Matroska
Версия формата : Version 4 / Version 2
Размер файла : 16,7 Гбайт
Продолжительность : 2 ч. 19 м.
Общий поток : 17,2 Мбит/сек
Название фильма : 9 рота [2005]
Дата кодирования : UTC 2013-12-03 17:11:25
Программа кодирования : mkvmerge v6.1.0 ('Old Devil') built on Mar 2 2013 14:32:37
Библиотека кодирования : libebml v1.3.0 + libmatroska v1.4.0
Attachment : Yes / Yes
Видео
Идентификатор : 1
Формат : AVC
Формат/Информация : Advanced Video Codec
Профиль формата : High@L4.1
Параметр CABAC формата : Да
Параметр ReFrames формата : 5 кадров
Идентификатор кодека : V_MPEG4/ISO/AVC
Продолжительность : 2 ч. 19 м.
Битрейт : 15,3 Мбит/сек
Ширина : 1920 пикселей
Высота : 774 пикселя
Соотношение сторон : 2,481
Режим частоты кадров : Постоянный
Частота кадров : 23,976 кадра/сек
Цветовое пространство : YUV
Субдискретизация насыщенности : 4:2:0
Битовая глубина : 8 бит
Тип развёртки : Прогрессивная
Бит/(Пиксели*Кадры) : 0.431
Размер потока : 14,9 Гбайт (89%)
Библиотека кодирования : x264 core 140 r2377kMod 1ca7bb9
Настройки программы : cabac=1 / ref=5 / deblock=1:-2:-2 / analyse=0x3:0x113 / me=umh / subme=11 / psy=1 / fade_compensate=0.00 / psy_rd=1.00:0.00 / mixed_ref=1 / me_range=48 / chroma_me=1 / trellis=2 / 8x8dct=1 / cqm=0 / deadzone=21,11 / fast_pskip=1 / chroma_qp_offset=-2 / threads=12 / lookahead_threads=2 / sliced_threads=0 / nr=0 / decimate=1 / interlaced=0 / bluray_compat=0 / constrained_intra=0 / fgo=0 / bframes=8 / b_pyramid=2 / b_adapt=2 / b_bias=0 / direct=3 / weightb=1 / open_gop=0 / weightp=2 / keyint=250 / keyint_min=23 / scenecut=40 / intra_refresh=0 / rc_lookahead=60 / rc=crf / mbtree=0 / crf=17.5000 / qcomp=0.60 / qpmin=0 / qpmax=69 / qpstep=4 / vbv_maxrate=62500 / vbv_bufsize=78125 / crf_max=0.0 / nal_hrd=none / filler=0 / ip_ratio=1.40 / pb_ratio=1.30 / aq=1:0.80
Язык : Russian
Default : Да
Forced : Да
Основные цвета : BT.709
Характеристики трансфера : BT.709
Коэффициенты матрицы : BT.709
Аудио
Идентификатор : 2
Формат : DTS
Формат/Информация : Digital Theater Systems
Режим : 16
Параметр Endianness формата : Big
Идентификатор кодека : A_DTS
Продолжительность : 2 ч. 19 м.
Вид битрейта : Постоянный
Битрейт : 1509 Кбит/сек
Каналы : 6 каналов
Расположение каналов : Front: L C R, Side: L R, LFE
Частота : 48,0 КГц
Битовая глубина : 16 бит
Метод сжатия : С потерями
Размер потока : 1,47 Гбайт (9%)
Язык : Russian
Default : Да
Forced : Да
Текст #1
Идентификатор : 3
Формат : UTF-8
Идентификатор кодека : S_TEXT/UTF8
Идентификатор кодека/Информация : UTF-8 Plain Text
Язык : Russian
Default : Нет
Forced : Нет
Текст #2
Идентификатор : 4
Формат : UTF-8
Идентификатор кодека : S_TEXT/UTF8
Идентификатор кодека/Информация : UTF-8 Plain Text
Язык : English
Default : Нет
Forced : Нет
Меню
00:00:00.000 : en:Chapter 1
00:10:04.395 : en:Chapter 2
00:26:26.835 : en:Chapter 3
00:37:27.578 : en:Chapter 4
00:46:48.055 : en:Chapter 5
00:59:00.495 : en:Chapter 6
01:11:37.751 : en:Chapter 7
01:23:07.983 : en:Chapter 8
01:37:39.687 : en:Chapter 9
01:48:14.321 : en:Chapter 10
01:55:44.604 : en:Chapter 11
02:14:44.910 : en:Chapter 12
-
Скачать

Скачать торрент!

Как скачивать? · Что такое торрент? · Рейтинг и ограничения

Сайт не распространяет и не хранит электронные версии произведений, а лишь предоставляет доступ к создаваемому пользователями каталогу ссылок на торрент-файлы, которые содержат только списки хеш-сумм

[Профиль] [ЛС]
Показать сообщения:    
Ответить на тему

Текущее время: Сегодня 19:40

Часовой пояс: GMT + 4



Вы не можете начинать темы
Вы не можете отвечать на сообщения
Вы не можете редактировать свои сообщения
Вы не можете удалять свои сообщения
Вы не можете голосовать в опросах
Вы не можете прикреплять файлы к сообщениям
Вы не можете скачивать файлы